<?xml version="1.0" standalone="no"?>
<!DOCTYPE svg PUBLIC "-//W3C//DTD SVG 1.1//EN" "http://www.w3.org/Graphics/SVG/1.1/DTD/svg11.dtd" >
<svg xmlns="http://www.w3.org/2000/svg">
<metadata>
<json>
<![CDATA[
{
	"fontFamily": "Phosphor-Light",
	"majorVersion": 2,
	"minorVersion": 1,
	"fontURL": "https://phosphoricons.com",
	"description": "A flexible icon family for everyone\nFont generated by IcoMoon.",
	"copyright": "Phosphor Icons",
	"designer": "Tobias Fried & Helena Zhang",
	"designerURL": "https://phosphoricons.com",
	"license": "MIT",
	"licenseURL": "https://raw.githubusercontent.com/phosphor-icons/homepage/master/LICENSE",
	"version": "Version 2.1",
	"fontId": "Phosphor-Light",
	"psName": "Phosphor-Light",
	"subFamily": "Regular",
	"fullName": "Phosphor-Light"
}
]]>
</json>
</metadata>
<defs>
<font id="Phosphor-Light" horiz-adv-x="1024">
<font-face units-per-em="1024" ascent="960" descent="-64" />
<missing-glyph horiz-adv-x="1024" />
<glyph unicode="&#x20;" horiz-adv-x="512" d="" />
<glyph unicode="&#xe000;" glyph-name="pulse-light, activity-light" data-tags="pulse-light" d="M952 448c0-13.255-10.745-24-24-24v0h-113.16l-153.36-306.72c-4.026-7.936-12.125-13.28-21.473-13.28-0.003 0-0.005 0-0.008 0h-1.2c-9.695 0.491-17.833 6.665-21.184 15.237l-0.056 0.163-235.52 618.32-136.2-299.64c-3.866-8.37-12.186-14.074-21.839-14.080h-128.001c-13.255 0-24 10.745-24 24s10.745 24 24 24v0h112.56l153.6 337.92c3.867 8.377 12.195 14.085 21.856 14.085 10.179 0 18.879-6.337 22.368-15.282l0.056-0.163 236.52-620.96 135.56 271.12c4.026 7.936 12.125 13.28 21.473 13.28 0.003 0 0.005 0 0.008 0h128c13.255 0 24-10.745 24-24v0z" />
<glyph unicode="&#xe002;" glyph-name="airplane-light" data-tags="airplane-light" d="M938.72 437.48l-306.72 153.36v177.16c0 66.274-53.726 120-120 120s-120-53.726-120-120v0-177.16l-306.72-153.36c-7.936-4.026-13.28-12.125-13.28-21.473 0-0.003 0-0.005 0-0.008v0-128c0.006-13.25 10.749-23.989 24-23.989 1.67 0 3.301 0.171 4.875 0.495l-0.155-0.027 291.28 58.24v-88.76l-56.96-57c-4.345-4.339-7.034-10.335-7.040-16.959v-128.001c0-13.254 10.745-23.999 24-23.999 3.213 0 6.279 0.632 9.080 1.777l-0.16-0.058 151.080 60.44 151.080-60.44c2.641-1.088 5.707-1.719 8.92-1.719 13.255 0 24 10.745 24 23.999v0 128c-0.006 6.625-2.695 12.621-7.040 16.96v0l-56.96 57v88.76l291.28-58.24c1.419-0.298 3.050-0.469 4.72-0.469 13.251 0 23.994 10.739 24 23.988v128.001c0 0.002 0 0.005 0 0.007 0 9.348-5.344 17.447-13.143 21.41l-0.137 0.063zM904 317.28l-291.28 58.24c-1.419 0.298-3.050 0.469-4.72 0.469-13.251 0-23.994-10.739-24-23.988v-128.001c0.006-6.625 2.695-12.621 7.040-16.96v0l56.96-57v-82.6l-127.080 50.84c-2.641 1.088-5.707 1.719-8.92 1.719s-6.279-0.632-9.080-1.777l0.16 0.058-127.080-50.84v82.6l56.96 57c4.345 4.339 7.034 10.335 7.040 16.959v128.001c-0.006 13.25-10.749 23.989-24 23.989-1.67 0-3.301-0.171-4.875-0.495l0.155 0.027-291.28-58.24v84l306.72 153.36c7.903 4.009 13.235 12.057 13.28 21.354v192.006c0 39.765 32.235 72 72 72s72-32.235 72-72v0-192c0-0.002 0-0.005 0-0.007 0-9.348 5.344-17.447 13.143-21.41l0.137-0.063 306.72-153.36z" />
<glyph unicode="&#xe004;" glyph-name="airplay-light" data-tags="airplay-light" d="M530.24 335.6c-4.428 5.142-10.946 8.378-18.22 8.378s-13.792-3.236-18.194-8.347l-0.026-0.031-192-224c-3.581-4.168-5.762-9.629-5.762-15.6 0-13.241 10.723-23.978 23.959-24h384.002c0 0 0.001 0 0.002 0 13.255 0 24 10.745 24 24 0 5.971-2.18 11.432-5.788 15.632l0.027-0.032zM372.2 120l140 163.12 139.8-163.12zM920 704v-448c0-48.601-39.399-88-88-88v0h-32c-13.255 0-24 10.745-24 24s10.745 24 24 24v0h32c22.091 0 40 17.909 40 40v0 448c0 22.091-17.909 40-40 40v0h-640c-22.091 0-40-17.909-40-40v0-448c0-22.091 17.909-40 40-40v0h32c13.255 0 24-10.745 24-24s-10.745-24-24-24v0h-32c-48.601 0-88 39.399-88 88v0 448c0 48.601 39.399 88 88 88v0h640c48.601 0 88-39.399 88-88v0z" />
<glyph unicode="&#xe006;" glyph-name="alarm-light" data-tags="alarm-light" d="M512 792c-207.659 0-376-168.341-376-376s168.341-376 376-376c207.659 0 376 168.341 376 376v0c-0.25 207.558-168.441 375.749-375.975 376h-0.025zM512 88c-181.149 0-328 146.851-328 328s146.851 328 328 328c181.149 0 328-146.851 328-328v0c-0.227-181.058-146.942-327.772-327.978-328h-0.022zM240.96 815.040l-128-128c-4.393-4.706-10.634-7.639-17.559-7.639-13.255 0-24 10.745-24 24 0 6.925 2.933 13.165 7.625 17.546l0.014 0.013 128 128c4.393 4.706 10.634 7.639 17.559 7.639 13.255 0 24-10.745 24-24 0-6.925-2.933-13.165-7.625-17.546l-0.014-0.013zM944.96 687.040c-4.342-4.337-10.338-7.019-16.96-7.019s-12.618 2.682-16.96 7.019v0l-128 128c-3.991 4.274-6.441 10.032-6.441 16.361 0 13.255 10.745 24 24 24 6.33 0 12.087-2.45 16.375-6.454l-0.014 0.013 128-128c4.337-4.342 7.019-10.338 7.019-16.96s-2.682-12.618-7.019-16.96v0zM736 440c13.255 0 24-10.745 24-24s-10.745-24-24-24v0h-224c-13.255 0-24 10.745-24 24v0 224c0 13.255 10.745 24 24 24s24-10.745 24-24v0-200z" />
<glyph unicode="&#xe008;" glyph-name="android-logo-light" data-tags="android-logo-light" d="M696 368c0-22.091-17.909-40-40-40s-40 17.909-40 40c0 22.091 17.909 40 40 40v0c22.091 0 40-17.909 40-40v0zM368 408c-22.091 0-40-17.909-40-40s17.909-40 40-40c22.091 0 40 17.909 40 40v0c0 22.091-17.909 40-40 40v0zM952 320v-96c0-30.928-25.072-56-56-56v0h-768c-30.928 0-56 25.072-56 56v0 91.48c0 0.108 0 0.236 0 0.364 0 130.175 55.8 247.318 144.786 328.814l0.334 0.302-106.080 106.080c-4.706 4.393-7.639 10.634-7.639 17.559 0 13.255 10.745 24 24 24 6.925 0 13.165-2.933 17.546-7.625l0.013-0.014 109.48-109.44c70.706 52.502 159.625 84.16 255.923 84.48h1.637c0.357 0.001 0.779 0.002 1.202 0.002 96.662 0 185.988-31.407 258.332-84.572l-1.213 0.851 108.72 108.68c4.274 3.991 10.032 6.441 16.361 6.441 13.255 0 24-10.745 24-24 0-6.33-2.45-12.087-6.454-16.375l0.013 0.014-105.24-105.24c5.040-4.6 10-9.28 14.88-14.12 79.922-79.243 129.402-189.080 129.402-310.473 0-0.424-0.001-0.849-0.002-1.273v0.066zM904 320c0 216.496-175.504 392-392 392v0h-1.4c-215.36-0.76-390.6-178.64-390.6-396.52v-91.48c0-4.418 3.582-8 8-8v0h768c4.418 0 8 3.582 8 8v0z" />
<glyph unicode="&#xe00a;" glyph-name="aperture-light" data-tags="aperture-light" d="M800.48 736.48c-73.592 72.442-174.648 117.17-286.151 117.17-225.332 0-408-182.668-408-408 0-111.493 44.721-212.541 117.203-286.184l-0.052 0.053c74.060-75.247 177.010-121.87 290.849-121.87 225.332 0 408 182.668 408 408 0 113.829-46.615 216.771-121.796 290.777l-0.053 0.052zM392.48 469.8l78.6 92.56 119.44-21.84 40.84-114.32-78.6-92.56-119.44 21.84zM839.72 597.24c20.329-43.764 32.188-94.997 32.188-148.999 0-60.457-14.863-117.443-41.135-167.502l0.947 1.981-224.56 40.96zM815.080 642.36l-147.76-173.92-120.68 337.88c86.566-8.327 162.946-46.407 219.985-103.745l0.015-0.015c17.794-17.858 33.759-37.561 47.579-58.789l0.861-1.411zM257.44 702.36c61.135 61.553 144.488 100.971 237.017 105.211l0.783 0.029 76.76-214.88-353 64.44c12.124 16.844 24.741 31.669 38.447 45.407l-0.007-0.007zM192 613.28l224.56-40.96-232.28-273.56c-20.329 43.764-32.188 94.997-32.188 148.999 0 60.457 14.863 117.443 41.135 167.502l-0.947-1.981zM208.84 253.64l147.76 173.92 120.68-337.88c-86.566 8.327-162.946 46.407-219.985 103.745l-0.015 0.015c-17.762 17.857-33.702 37.559-47.497 58.784l-0.863 1.416zM766.48 193.64c-61.149-61.495-144.509-100.849-237.031-105.012l-0.769-0.028-76.68 214.68 352.96-64.44c-12.114-16.846-24.718-31.671-38.41-45.41l0.010 0.010z" />
<glyph unicode="&#xe00c;" glyph-name="archive-light" data-tags="archive-light" d="M896 760h-768c-30.928 0-56-25.072-56-56v0-96c0-30.928 25.072-56 56-56v0h8v-360c0-30.928 25.072-56 56-56v0h640c30.928 0 56 25.072 56 56v0 360h8c30.928 0 56 25.072 56 56v0 96c0 30.928-25.072 56-56 56v0zM840 192c0-4.418-3.582-8-8-8v0h-640c-4.418 0-8 3.582-8 8v0 360h656zM904 608c0-4.418-3.582-8-8-8v0h-768c-4.418 0-8 3.582-8 8v0 96c0 4.418 3.582 8 8 8v0h768c4.418 0 8-3.582 8-8v0zM392 416c0 13.255 10.745 24 24 24v0h192c13.255 0 24-10.745 24-24s-10.745-24-24-24v0h-192c-13.255 0-24 10.745-24 24v0z" />
<glyph unicode="&#xe00e;" glyph-name="box-arrow-down-light, archive-box-light" data-tags="box-arrow-down-light" d="M885.48 682.72l-64 128c-4.026 7.936-12.125 13.28-21.473 13.28-0.003 0-0.005 0-0.008 0h-576c-0.002 0-0.005 0-0.007 0-9.348 0-17.447-5.344-21.41-13.143l-0.063-0.137-64-128c-1.582-3.126-2.511-6.813-2.52-10.717v-544.003c0-30.928 25.072-56 56-56v0h640c30.928 0 56 25.072 56 56v0 544c-0.009 3.907-0.938 7.594-2.584 10.859l0.064-0.139zM238.84 776h546.32l40-80h-626.32zM832 120h-640c-4.418 0-8 3.582-8 8v0 520h656v-520c0-4.418-3.582-8-8-8v0zM656.96 368.96c4.337-4.342 7.019-10.338 7.019-16.96s-2.682-12.618-7.019-16.96v0l-128-128c-4.342-4.337-10.338-7.019-16.96-7.019s-12.618 2.682-16.96 7.019v0l-128 128c-3.991 4.274-6.441 10.032-6.441 16.361 0 13.255 10.745 24 24 24 6.33 0 12.087-2.45 16.375-6.454l-0.014 0.013 87.040-87v262.040c0 13.255 10.745 24 24 24s24-10.745 24-24v0-262.040l87.040 87c4.342 4.337 10.338 7.019 16.96 7.019s12.618-2.682 16.96-7.019v0z" />
<glyph unicode="&#xe010;" glyph-name="tray-arrow-down-light, archive-tray-light" data-tags="tray-arrow-down-light" d="M832 824h-640c-30.928 0-56-25.072-56-56v0-640c0-30.928 25.072-56 56-56v0h640c30.928 0 56 25.072 56 56v0 640c0 30.928-25.072 56-56 56v0zM192 776h640c4.418 0 8-3.582 8-8v0-424h-122.76c-0.031 0-0.067 0-0.103 0-15.432 0-29.399-6.269-39.495-16.399l-77.242-77.242c-1.442-1.45-3.435-2.35-5.638-2.36h-165.522c-0.002 0-0.004 0-0.006 0-2.198 0-4.188 0.886-5.634 2.321l-77.239 77.279c-10.097 10.131-24.065 16.4-39.497 16.4-0.036 0-0.073 0-0.109 0h-122.754v424c0 4.418 3.582 8 8 8v0zM832 120h-640c-4.418 0-8 3.582-8 8v0 168h122.76c0.002 0 0.004 0 0.006 0 2.198 0 4.188-0.886 5.634-2.321l77.239-77.279c10.097-10.131 24.065-16.4 39.497-16.4 0.036 0 0.073 0 0.109 0h165.514c0.031 0 0.067 0 0.103 0 15.432 0 29.399 6.269 39.495 16.399l77.242 77.242c1.442 1.45 3.435 2.35 5.638 2.36h122.762v-168c0-4.418-3.582-8-8-8v0zM367.040 463.040c-3.991 4.274-6.441 10.032-6.441 16.361 0 13.255 10.745 24 24 24 6.33 0 12.087-2.45 16.375-6.454l-0.014 0.013 87.040-87v262.040c0 13.255 10.745 24 24 24s24-10.745 24-24v0-262.040l87.040 87c4.274 3.991 10.032 6.441 16.361 6.441 13.255 0 24-10.745 24-24 0-6.33-2.45-12.087-6.454-16.375l0.013 0.014-128-128c-4.342-4.337-10.338-7.019-16.96-7.019s-12.618 2.682-16.96 7.019v0z" />
<glyph unicode="&#xe012;" glyph-name="armchair-light" data-tags="armchair-light" d="M856 598.080v73.92c0 83.947-68.053 152-152 152v0h-384c-83.947 0-152-68.053-152-152v0-73.92c-73.013-11.976-128.042-74.612-128.042-150.1s55.029-138.124 127.161-149.98l0.881-0.12v-137.88c0-30.928 25.072-56 56-56v0h576c30.928 0 56 25.072 56 56v0 137.88c72.715 12.241 127.424 74.732 127.424 150s-54.709 137.759-126.53 149.875l-0.893 0.125zM320 776h384c57.438 0 104-46.562 104-104v0-73.92c-72.946-12.072-127.906-74.644-128-150.070v-8.010h-336v8c-0.094 75.436-55.054 138.008-127.114 149.959l-0.886 0.121v73.92c0 57.438 46.562 104 104 104v0zM833.4 344h-1.4c-13.255 0-24-10.745-24-24v0-160c0-4.418-3.582-8-8-8v0h-576c-4.418 0-8 3.582-8 8v0 160c0 13.255-10.745 24-24 24v0h-1.4c-56.832 0.789-102.6 47.045-102.6 103.991 0 57.438 46.562 104 104 104 57.434 0 103.995-46.557 104-103.99v-160.001c0-13.255 10.745-24 24-24s24 10.745 24 24v0 104h336v-104c0-13.255 10.745-24 24-24s24 10.745 24 24v0 160c0.005 57.434 46.566 103.991 104 103.991 57.438 0 104-46.562 104-104 0-56.945-45.768-103.201-102.526-103.99l-0.074-0.001z" />
<glyph unicode="&#xe014;" glyph-name="arrow-arc-left-light" data-tags="arrow-arc-left-light" d="M920 224c0-13.255-10.745-24-24-24s-24 10.745-24 24v0c0 0.001 0 0.002 0 0.003 0 198.823-161.177 360-360 360-99.412 0-189.412-40.295-254.56-105.443v0l-103.24-102.56h197.8c13.255 0 24-10.745 24-24s-10.745-24-24-24v0h-256c-13.255 0-24 10.745-24 24v0 256c0 13.255 10.745 24 24 24s24-10.745 24-24v0-198.32l103.56 102.88c73.827 73.798 175.803 119.441 288.44 119.441 225.332 0 408-182.668 408-408 0 0 0-0.001 0-0.001v0z" />
<glyph unicode="&#xe016;" glyph-name="arrow-arc-right-light" data-tags="arrow-arc-right-light" d="M952 608v-256c0-13.255-10.745-24-24-24v0h-256c-13.255 0-24 10.745-24 24s10.745 24 24 24v0h197.8l-103.2 102.52c-65.151 65.172-155.168 105.483-254.6 105.483-198.823 0-360-161.177-360-360 0-0.001 0-0.002 0-0.003v0c0-13.255-10.745-24-24-24s-24 10.745-24 24v0c0.022 225.315 182.682 407.961 408 407.961 112.656 0 214.648-45.659 288.48-119.481v0l103.52-102.8v198.32c0 13.255 10.745 24 24 24s24-10.745 24-24v0z" />
<glyph unicode="&#xe018;" glyph-name="arrow-bend-down-left-light" data-tags="arrow-bend-down-left-light" d="M920 736c-0.273-225.222-182.778-407.727-407.974-408h-326.066l151-151.040c4.706-4.393 7.639-10.634 7.639-17.559 0-13.255-10.745-24-24-24-6.925 0-13.165 2.933-17.546 7.625l-0.013 0.014-192 192c-4.337 4.342-7.019 10.338-7.019 16.96s2.682 12.618 7.019 16.96v0l192 192c4.274 3.991 10.032 6.441 16.361 6.441 13.255 0 24-10.745 24-24 0-6.33-2.45-12.087-6.454-16.375l0.013 0.014-151-151.040h326.040c198.731 0.228 359.773 161.269 360 359.979v0.021c0 13.255 10.745 24 24 24s24-10.745 24-24v0z" />
<glyph unicode="&#xe01a;" glyph-name="arrow-bend-down-right-light" data-tags="arrow-bend-down-right-light" d="M912.96 335.040l-192-192c-4.274-3.991-10.032-6.441-16.361-6.441-13.255 0-24 10.745-24 24 0 6.33 2.45 12.087 6.454 16.375l-0.013-0.014 151 151.040h-326.040c-225.222 0.273-407.727 182.778-408 407.974v0.026c0 13.255 10.745 24 24 24s24-10.745 24-24v0c0.228-198.731 161.269-359.773 359.979-360h326.061l-151 151.040c-3.991 4.274-6.441 10.032-6.441 16.361 0 13.255 10.745 24 24 24 6.33 0 12.087-2.45 16.375-6.454l-0.014 0.013 192-192c4.337-4.342 7.019-10.338 7.019-16.96s-2.682-12.618-7.019-16.96v0z" />
<glyph unicode="&#xe01c;" glyph-name="arrow-bend-left-down-light" data-tags="arrow-bend-left-down-light" d="M824 832c0-13.255-10.745-24-24-24v0c-198.731-0.228-359.773-161.269-360-359.979v-326.061l151.040 151c4.274 3.991 10.032 6.441 16.361 6.441 13.255 0 24-10.745 24-24 0-6.33-2.45-12.087-6.454-16.375l0.013 0.014-192-192c-4.342-4.337-10.338-7.019-16.96-7.019s-12.618 2.682-16.96 7.019v0l-192 192c-3.991 4.274-6.441 10.032-6.441 16.361 0 13.255 10.745 24 24 24 6.33 0 12.087-2.45 16.375-6.454l-0.014 0.013 151.040-151v326.040c0.273 225.222 182.778 407.727 407.974 408h0.026c13.255 0 24-10.745 24-24v0z" />
<glyph unicode="&#xe01e;" glyph-name="arrow-bend-left-up-light" data-tags="arrow-bend-left-up-light" d="M824 64c0-13.255-10.745-24-24-24v0c-225.222 0.273-407.727 182.778-408 407.974v326.066l-151.040-151c-4.274-3.991-10.032-6.441-16.361-6.441-13.255 0-24 10.745-24 24 0 6.33 2.45 12.087 6.454 16.375l-0.013-0.014 192 192c4.342 4.337 10.338 7.019 16.96 7.019s12.618-2.682 16.96-7.019v0l192-192c4.706-4.393 7.639-10.634 7.639-17.559 0-13.255-10.745-24-24-24-6.925 0-13.165 2.933-17.546 7.625l-0.013 0.014-151.040 151v-326.040c0.228-198.731 161.269-359.773 359.979-360h0.021c13.255 0 24-10.745 24-24v0z" />
<glyph unicode="&#xe020;" glyph-name="arrow-bend-right-down-light" data-tags="arrow-bend-right-down-light" d="M816.96 239.040l-192-192c-4.342-4.337-10.338-7.019-16.96-7.019s-12.618 2.682-16.96 7.019v0l-192 192c-3.991 4.274-6.441 10.032-6.441 16.361 0 13.255 10.745 24 24 24 6.33 0 12.087-2.45 16.375-6.454l-0.014 0.013 151.040-151v326.040c-0.228 198.731-161.269 359.773-359.979 360h-0.021c-13.255 0-24 10.745-24 24s10.745 24 24 24v0c225.222-0.273 407.727-182.778 408-407.974v-326.066l151.040 151c4.274 3.991 10.032 6.441 16.361 6.441 13.255 0 24-10.745 24-24 0-6.33-2.45-12.087-6.454-16.375l0.013 0.014z" />
<glyph unicode="&#xe022;" glyph-name="arrow-bend-right-up-light" data-tags="arrow-bend-right-up-light" d="M816.96 623.040c-4.342-4.337-10.338-7.019-16.96-7.019s-12.618 2.682-16.96 7.019v0l-151.040 151v-326.040c-0.273-225.222-182.778-407.727-407.974-408h-0.026c-13.255 0-24 10.745-24 24s10.745 24 24 24v0c198.731 0.228 359.773 161.269 360 359.979v326.061l-151.040-151c-4.274-3.991-10.032-6.441-16.361-6.441-13.255 0-24 10.745-24 24 0 6.33 2.45 12.087 6.454 16.375l-0.013-0.014 192 192c4.342 4.337 10.338 7.019 16.96 7.019s12.618-2.682 16.96-7.019v0l192-192c4.337-4.342 7.019-10.338 7.019-16.96s-2.682-12.618-7.019-16.96v0z" />
<glyph unicode="&#xe024;" glyph-name="arrow-bend-up-left-light" data-tags="arrow-bend-up-left-light" d="M920 160c0-13.255-10.745-24-24-24s-24 10.745-24 24v0c-0.228 198.731-161.269 359.773-359.979 360h-326.061l151-151.040c4.706-4.393 7.639-10.634 7.639-17.559 0-13.255-10.745-24-24-24-6.925 0-13.165 2.933-17.546 7.625l-0.013 0.014-192 192c-4.337 4.342-7.019 10.338-7.019 16.96s2.682 12.618 7.019 16.96v0l192 192c4.274 3.991 10.032 6.441 16.361 6.441 13.255 0 24-10.745 24-24 0-6.33-2.45-12.087-6.454-16.375l0.013 0.014-151-151.040h326.040c225.222-0.273 407.727-182.778 408-407.974v-0.026z" />
<glyph unicode="&#xe026;" glyph-name="arrow-bend-up-right-light" data-tags="arrow-bend-up-right-light" d="M912.96 527.040l-192-192c-4.274-3.991-10.032-6.441-16.361-6.441-13.255 0-24 10.745-24 24 0 6.33 2.45 12.087 6.454 16.375l-0.013-0.014 151 151.040h-326.040c-198.731-0.228-359.773-161.269-360-359.979v-0.021c0-13.255-10.745-24-24-24s-24 10.745-24 24v0c0.273 225.222 182.778 407.727 407.974 408h326.066l-151 151.040c-3.991 4.274-6.441 10.032-6.441 16.361 0 13.255 10.745 24 24 24 6.33 0 12.087-2.45 16.375-6.454l-0.014 0.013 192-192c4.337-4.342 7.019-10.338 7.019-16.96s-2.682-12.618-7.019-16.96v0z" />
<glyph unicode="&#xe028;" glyph-name="arrow-circle-down-light" data-tags="arrow-circle-down-light" d="M512 856c-225.332 0-408-182.668-408-408s182.668-408 408-408c225.332 0 408 182.668 408 408v0c-0.273 225.222-182.778 407.727-407.974 408h-0.026zM512 88c-198.823 0-360 161.177-360 360s161.177 360 360 360c198.823 0 360-161.177 360-360v0c-0.228-198.731-161.269-359.773-359.979-360h-0.021zM656.96 432.96c4.337-4.342 7.019-10.338 7.019-16.96s-2.682-12.618-7.019-16.96v0l-128-128c-4.342-4.337-10.338-7.019-16.96-7.019s-12.618 2.682-16.96 7.019v0l-128 128c-3.991 4.274-6.441 10.032-6.441 16.361 0 13.255 10.745 24 24 24 6.33 0 12.087-2.45 16.375-6.454l-0.014 0.013 87.040-87v262.040c0 13.255 10.745 24 24 24s24-10.745 24-24v0-262.040l87.040 87c4.342 4.337 10.338 7.019 16.96 7.019s12.618-2.682 16.96-7.019v0z" />
<glyph unicode="&#xe02a;" glyph-name="arrow-circle-down-left-light" data-tags="arrow-circle-down-left-light" d="M512 856c-225.332 0-408-182.668-408-408s182.668-408 408-408c225.332 0 408 182.668 408 408v0c-0.273 225.222-182.778 407.727-407.974 408h-0.026zM512 88c-198.823 0-360 161.177-360 360s161.177 360 360 360c198.823 0 360-161.177 360-360v0c-0.228-198.731-161.269-359.773-359.979-360h-0.021zM656.96 592.96c4.337-4.342 7.019-10.338 7.019-16.96s-2.682-12.618-7.019-16.96v0l-215-215.040h134.040c13.255 0 24-10.745 24-24s-10.745-24-24-24v0h-192c-13.255 0-24 10.745-24 24v0 192c0 13.255 10.745 24 24 24s24-10.745 24-24v0-134.040l215.040 215c4.342 4.337 10.338 7.019 16.96 7.019s12.618-2.682 16.96-7.019v0z" />
<glyph unicode="&#xe02c;" glyph-name="arrow-circle-down-right-light" data-tags="arrow-circle-down-right-light" d="M512 856c-225.332 0-408-182.668-408-408s182.668-408 408-408c225.332 0 408 182.668 408 408v0c-0.273 225.222-182.778 407.727-407.974 408h-0.026zM512 88c-198.823 0-360 161.177-360 360s161.177 360 360 360c198.823 0 360-161.177 360-360v0c-0.228-198.731-161.269-359.773-359.979-360h-0.021zM664 512v-192c0-13.255-10.745-24-24-24v0h-192c-13.255 0-24 10.745-24 24s10.745 24 24 24v0h134.040l-215 215.040c-3.991 4.274-6.441 10.032-6.441 16.361 0 13.255 10.745 24 24 24 6.33 0 12.087-2.45 16.375-6.454l-0.014 0.013 215.040-215v134.040c0 13.255 10.745 24 24 24s24-10.745 24-24v0z" />
<glyph unicode="&#xe02e;" glyph-name="arrow-circle-right-light" data-tags="arrow-circle-right-light" d="M512 856c-225.332 0-408-182.668-408-408s182.668-408 408-408c225.332 0 408 182.668 408 408v0c-0.273 225.222-182.778 407.727-407.974 408h-0.026zM512 88c-198.823 0-360 161.177-360 360s161.177 360 360 360c198.823 0 360-161.177 360-360v0c-0.228-198.731-161.269-359.773-359.979-360h-0.021zM688.96 464.96c4.337-4.342 7.019-10.338 7.019-16.96s-2.682-12.618-7.019-16.96v0l-128-128c-4.274-3.991-10.032-6.441-16.361-6.441-13.255 0-24 10.745-24 24 0 6.33 2.45 12.087 6.454 16.375l-0.013-0.014 87 87.040h-262.040c-13.255 0-24 10.745-24 24s10.745 24 24 24v0h262.040l-87 87.040c-3.991 4.274-6.441 10.032-6.441 16.361 0 13.255 10.745 24 24 24 6.33 0 12.087-2.45 16.375-6.454l-0.014 0.013z" />
<glyph unicode="&#xe030;" glyph-name="arrow-circle-up-light" data-tags="arrow-circle-up-light" d="M512 856c-225.332 0-408-182.668-408-408s182.668-408 408-408c225.332 0 408 182.668 408 408v0c-0.273 225.222-182.778 407.727-407.974 408h-0.026zM512 88c-198.823 0-360 161.177-360 360s161.177 360 360 360c198.823 0 360-161.177 360-360v0c-0.228-198.731-161.269-359.773-359.979-360h-0.021zM656.96 496.96c4.706-4.393 7.639-10.634 7.639-17.559 0-13.255-10.745-24-24-24-6.925 0-13.165 2.933-17.546 7.625l-0.013 0.014-87.040 87v-262.040c0-13.255-10.745-24-24-24s-24 10.745-24 24v0 262.040l-87.040-87c-4.274-3.991-10.032-6.441-16.361-6.441-13.255 0-24 10.745-24 24 0 6.33 2.45 12.087 6.454 16.375l-0.013-0.014 128 128c4.342 4.337 10.338 7.019 16.96 7.019s12.618-2.682 16.96-7.019v0z" />
<glyph unicode="&#xe032;" glyph-name="arrow-circle-up-left-light" data-tags="arrow-circle-up-left-light" d="M512 856c-225.332 0-408-182.668-408-408s182.668-408 408-408c225.332 0 408 182.668 408 408v0c-0.273 225.222-182.778 407.727-407.974 408h-0.026zM512 88c-198.823 0-360 161.177-360 360s161.177 360 360 360c198.823 0 360-161.177 360-360v0c-0.228-198.731-161.269-359.773-359.979-360h-0.021zM656.96 336.96c4.706-4.393 7.639-10.634 7.639-17.559 0-13.255-10.745-24-24-24-6.925 0-13.165 2.933-17.546 7.625l-0.013 0.014-215.040 215v-134.040c0-13.255-10.745-24-24-24s-24 10.745-24 24v0 192c0 13.255 10.745 24 24 24v0h192c13.255 0 24-10.745 24-24s-10.745-24-24-24v0h-134.040z" />
<glyph unicode="&#xe034;" glyph-name="arrow-circle-up-right-light" data-tags="arrow-circle-up-right-light" d="M512 856c-225.332 0-408-182.668-408-408s182.668-408 408-408c225.332 0 408 182.668 408 408v0c-0.273 225.222-182.778 407.727-407.974 408h-0.026zM512 88c-198.823 0-360 161.177-360 360s161.177 360 360 360c198.823 0 360-161.177 360-360v0c-0.228-198.731-161.269-359.773-359.979-360h-0.021zM664 576v-192c0-13.255-10.745-24-24-24s-24 10.745-24 24v0 134.040l-215.040-215c-4.274-3.991-10.032-6.441-16.361-6.441-13.255 0-24 10.745-24 24 0 6.33 2.45 12.087 6.454 16.375l-0.013-0.014 215 215.040h-134.040c-13.255 0-24 10.745-24 24s10.745 24 24 24v0h192c13.255 0 24-10.745 24-24v0z" />
<glyph unicode="&#xe036;" glyph-name="arrow-clockwise-light" data-tags="arrow-clockwise-light" d="M952 736v-192c0-13.255-10.745-24-24-24v0h-192c-13.255 0-24 10.745-24 24s10.745 24 24 24v0h130.2l-121.52 111.2c-0.24 0.24-0.48 0.52-0.76 0.76-59.349 59.316-141.322 96.001-231.863 96.001-181.149 0-328-146.851-328-328s146.851-328 328-328c87.208 0 166.468 34.034 225.22 89.545l-0.156-0.147c4.29 4.056 10.094 6.549 16.48 6.549 13.26 0 24.009-10.749 24.009-24.009 0-6.874-2.888-13.073-7.518-17.449l-0.011-0.011c-66.855-63.431-157.42-102.441-257.097-102.441-0.345 0-0.691 0-1.036 0.001h-5.066c-205.37 2.984-370.706 170.165-370.706 375.963 0 207.659 168.341 376 376 376 103.548 0 197.32-41.858 265.319-109.575l-0.013 0.013 126.52-115.8v137.4c0 13.255 10.745 24 24 24s24-10.745 24-24v0z" />
<glyph unicode="&#xe038;" glyph-name="arrow-counter-clockwise-light" data-tags="arrow-counter-clockwise-light" d="M888 448c0-0.010 0-0.022 0-0.034 0-205.887-165.48-373.124-370.693-375.963l-0.267-0.003h-5.040c-0.232-0.001-0.507-0.001-0.782-0.001-99.743 0-190.36 39.075-257.378 102.752l0.16-0.151c-4.853 4.408-7.888 10.743-7.888 17.788 0 13.255 10.745 24 24 24 6.567 0 12.517-2.637 16.851-6.91l-0.003 0.003c58.59-55.341 137.833-89.36 225.022-89.36 181.149 0 328 146.851 328 328s-146.851 328-328 328c-90.6 0-172.621-36.733-231.981-96.119l-0.761-0.761-121.48-111.24h130.24c13.255 0 24-10.745 24-24s-10.745-24-24-24v0h-192c-13.255 0-24 10.745-24 24v0 192c0 13.255 10.745 24 24 24s24-10.745 24-24v0-137.36l126.52 115.76c68.003 67.809 161.845 109.736 265.48 109.736 207.659 0 376-168.341 376-376 0-0.048 0-0.096 0-0.143v0.007z" />
<glyph unicode="&#xe03a;" glyph-name="arrow-bend-double-up-left-light" data-tags="arrow-bend-double-up-left-light" d="M336.96 368.96c4.706-4.393 7.639-10.634 7.639-17.559 0-13.255-10.745-24-24-24-6.925 0-13.165 2.933-17.546 7.625l-0.013 0.014-192 192c-4.337 4.342-7.019 10.338-7.019 16.96s2.682 12.618 7.019 16.96v0l192 192c4.274 3.991 10.032 6.441 16.361 6.441 13.255 0 24-10.745 24-24 0-6.33-2.45-12.087-6.454-16.375l0.013 0.014-175-175.040zM512 568h-134.040l151 151.040c3.991 4.274 6.441 10.032 6.441 16.361 0 13.255-10.745 24-24 24-6.33 0-12.087-2.45-16.375-6.454l0.014 0.013-192-192c-4.337-4.342-7.019-10.338-7.019-16.96s2.682-12.618 7.019-16.96v0l192-192c4.274-3.991 10.032-6.441 16.361-6.441 13.255 0 24 10.745 24 24 0 6.33-2.45 12.087-6.454 16.375l0.013-0.014-151 151.040h134.040c198.731-0.228 359.773-161.269 360-359.979v-0.021c0-13.255 10.745-24 24-24s24 10.745 24 24v0c-0.273 225.222-182.778 407.727-407.974 408h-0.026z" />
<glyph unicode="&#xe03c;" glyph-name="arrow-bend-double-up-right-light" data-tags="arrow-bend-double-up-right-light" d="M912.96 527.040l-192-192c-4.274-3.991-10.032-6.441-16.361-6.441-13.255 0-24 10.745-24 24 0 6.33 2.45 12.087 6.454 16.375l-0.013-0.014 175 175.040-175 175.040c-3.991 4.274-6.441 10.032-6.441 16.361 0 13.255 10.745 24 24 24 6.33 0 12.087-2.45 16.375-6.454l-0.014 0.013 192-192c4.337-4.342 7.019-10.338 7.019-16.96s-2.682-12.618-7.019-16.96v0zM720.96 560.96l-192 192c-4.393 4.706-10.634 7.639-17.559 7.639-13.255 0-24-10.745-24-24 0-6.925 2.933-13.165 7.625-17.546l0.014-0.013 151-151.040h-134.040c-225.222-0.273-407.727-182.778-408-407.974v-0.026c0-13.255 10.745-24 24-24s24 10.745 24 24v0c0.228 198.731 161.269 359.773 359.979 360h134.061l-151-151.040c-4.706-4.393-7.639-10.634-7.639-17.559 0-13.255 10.745-24 24-24 6.925 0 13.165 2.933 17.546 7.625l0.013 0.014 192 192c4.337 4.342 7.019 10.338 7.019 16.96s-2.682 12.618-7.019 16.96v0z" />
<glyph unicode="&#xe03e;" glyph-name="arrow-down-light" data-tags="arrow-down-light" d="M816.96 367.040l-288-288c-4.342-4.337-10.338-7.019-16.96-7.019s-12.618 2.682-16.96 7.019v0l-288 288c-3.991 4.274-6.441 10.032-6.441 16.361 0 13.255 10.745 24 24 24 6.33 0 12.087-2.45 16.375-6.454l-0.014 0.013 247.040-247v646.040c0 13.255 10.745 24 24 24s24-10.745 24-24v0-646.040l247.040 247c4.274 3.991 10.032 6.441 16.361 6.441 13.255 0 24-10.745 24-24 0-6.33-2.45-12.087-6.454-16.375l0.013 0.014z" />
<glyph unicode="&#xe040;" glyph-name="arrow-down-left-light" data-tags="arrow-down-left-light" d="M784.96 687.040l-471.040-471.040h358.080c13.255 0 24-10.745 24-24s-10.745-24-24-24v0h-416c-13.255 0-24 10.745-24 24v0 416c0 13.255 10.745 24 24 24s24-10.745 24-24v0-358.080l471.040 471.040c4.274 3.991 10.032 6.441 16.361 6.441 13.255 0 24-10.745 24-24 0-6.33-2.45-12.087-6.454-16.375l0.013 0.014z" />
<glyph unicode="&#xe042;" glyph-name="arrow-down-right-light" data-tags="arrow-down-right-light" d="M792 608v-416c0-13.255-10.745-24-24-24v0h-416c-13.255 0-24 10.745-24 24s10.745 24 24 24v0h358.080l-471.040 471.040c-3.991 4.274-6.441 10.032-6.441 16.361 0 13.255 10.745 24 24 24 6.33 0 12.087-2.45 16.375-6.454l-0.014 0.013 471.040-471.040v358.080c0 13.255 10.745 24 24 24s24-10.745 24-24v0z" />
<glyph unicode="&#xe044;" glyph-name="arrow-elbow-down-left-light" data-tags="arrow-elbow-down-left-light" d="M792 832v-576c0-13.255-10.745-24-24-24v0h-518.040l151-151.040c4.706-4.393 7.639-10.634 7.639-17.559 0-13.255-10.745-24-24-24-6.925 0-13.165 2.933-17.546 7.625l-0.013 0.014-192 192c-4.337 4.342-7.019 10.338-7.019 16.96s2.682 12.618 7.019 16.96v0l192 192c4.393 4.706 10.634 7.639 17.559 7.639 13.255 0 24-10.745 24-24 0-6.925-2.933-13.165-7.625-17.546l-0.014-0.013-151-151.040h494.040v552c0 13.255 10.745 24 24 24s24-10.745 24-24v0z" />
<glyph unicode="&#xe046;" glyph-name="arrow-elbow-down-right-light" data-tags="arrow-elbow-down-right-light" d="M880.96 239.040l-192-192c-4.274-3.991-10.032-6.441-16.361-6.441-13.255 0-24 10.745-24 24 0 6.33 2.45 12.087 6.454 16.375l-0.013-0.014 151 151.040h-518.040c-13.255 0-24 10.745-24 24v0 576c0 13.255 10.745 24 24 24s24-10.745 24-24v0-552h494.040l-151 151.040c-4.706 4.393-7.639 10.634-7.639 17.559 0 13.255 10.745 24 24 24 6.925 0 13.165-2.933 17.546-7.625l0.013-0.014 192-192c4.337-4.342 7.019-10.338 7.019-16.96s-2.682-12.618-7.019-16.96v0z" />
<glyph unicode="&#xe048;" glyph-name="arrow-elbow-left-light" data-tags="arrow-elbow-left-light" d="M944.96 559.040l-384-384c-4.342-4.337-10.338-7.019-16.96-7.019s-12.618 2.682-16.96 7.019v0l-407.040 407.040v-230.080c0-13.255-10.745-24-24-24s-24 10.745-24 24v0 288c0 13.255 10.745 24 24 24v0h288c13.255 0 24-10.745 24-24s-10.745-24-24-24v0h-230.080l390.080-390.040 367.040 367c4.274 3.991 10.032 6.441 16.361 6.441 13.255 0 24-10.745 24-24 0-6.33-2.45-12.087-6.454-16.375l0.013 0.014z" />
<glyph unicode="&#xe04a;" glyph-name="arrow-elbow-left-down-light" data-tags="arrow-elbow-left-down-light" d="M952 672c0-13.255-10.745-24-24-24v0h-552v-494.040l151.040 151c4.274 3.991 10.032 6.441 16.361 6.441 13.255 0 24-10.745 24-24 0-6.33-2.45-12.087-6.454-16.375l0.013 0.014-192-192c-4.342-4.337-10.338-7.019-16.96-7.019s-12.618 2.682-16.96 7.019v0l-192 192c-3.991 4.274-6.441 10.032-6.441 16.361 0 13.255 10.745 24 24 24 6.33 0 12.087-2.45 16.375-6.454l-0.014 0.013 151.040-151v518.040c0 13.255 10.745 24 24 24v0h576c13.255 0 24-10.745 24-24v0z" />
<glyph unicode="&#xe04c;" glyph-name="arrow-elbow-left-up-light" data-tags="arrow-elbow-left-up-light" d="M952 192c0-13.255-10.745-24-24-24v0h-576c-13.255 0-24 10.745-24 24v0 518.040l-151.040-151c-4.274-3.991-10.032-6.441-16.361-6.441-13.255 0-24 10.745-24 24 0 6.33 2.45 12.087 6.454 16.375l-0.013-0.014 192 192c4.342 4.337 10.338 7.019 16.96 7.019s12.618-2.682 16.96-7.019v0l192-192c4.706-4.393 7.639-10.634 7.639-17.559 0-13.255-10.745-24-24-24-6.925 0-13.165 2.933-17.546 7.625l-0.013 0.014-151.040 151v-494.040h552c13.255 0 24-10.745 24-24v0z" />
<glyph unicode="&#xe04e;" glyph-name="arrow-elbow-right-light" data-tags="arrow-elbow-right-light" d="M952 640v-288c0-13.255-10.745-24-24-24s-24 10.745-24 24v0 230.080l-407.040-407.040c-4.342-4.337-10.338-7.019-16.96-7.019s-12.618 2.682-16.96 7.019v0l-384 384c-3.991 4.274-6.441 10.032-6.441 16.361 0 13.255 10.745 24 24 24 6.33 0 12.087-2.45 16.375-6.454l-0.014 0.013 367.040-367 390.080 390.040h-230.080c-13.255 0-24 10.745-24 24s10.745 24 24 24v0h288c13.255 0 24-10.745 24-24v0z" />
<glyph unicode="&#xe050;" glyph-name="arrow-elbow-right-down-light" data-tags="arrow-elbow-right-down-light" d="M912.96 303.040l-192-192c-4.342-4.337-10.338-7.019-16.96-7.019s-12.618 2.682-16.96 7.019v0l-192 192c-4.706 4.393-7.639 10.634-7.639 17.559 0 13.255 10.745 24 24 24 6.925 0 13.165-2.933 17.546-7.625l0.013-0.014 151.040-151v494.040h-552c-13.255 0-24 10.745-24 24s10.745 24 24 24v0h576c13.255 0 24-10.745 24-24v0-518.040l151.040 151c4.274 3.991 10.032 6.441 16.361 6.441 13.255 0 24-10.745 24-24 0-6.33-2.45-12.087-6.454-16.375l0.013 0.014z" />
<glyph unicode="&#xe052;" glyph-name="arrow-elbow-right-up-light" data-tags="arrow-elbow-right-up-light" d="M880.96 559.040c-4.342-4.337-10.338-7.019-16.96-7.019s-12.618 2.682-16.96 7.019v0l-151.040 151v-518.040c0-13.255-10.745-24-24-24v0h-576c-13.255 0-24 10.745-24 24s10.745 24 24 24v0h552v494.040l-151.040-151c-4.274-3.991-10.032-6.441-16.361-6.441-13.255 0-24 10.745-24 24 0 6.33 2.45 12.087 6.454 16.375l-0.013-0.014 192 192c4.342 4.337 10.338 7.019 16.96 7.019s12.618-2.682 16.96-7.019v0l192-192c4.337-4.342 7.019-10.338 7.019-16.96s-2.682-12.618-7.019-16.96v0z" />
<glyph unicode="&#xe054;" glyph-name="arrow-elbow-up-left-light" data-tags="arrow-elbow-up-left-light" d="M792 640v-576c0-13.255-10.745-24-24-24s-24 10.745-24 24v0 552h-494.040l151-151.040c4.706-4.393 7.639-10.634 7.639-17.559 0-13.255-10.745-24-24-24-6.925 0-13.165 2.933-17.546 7.625l-0.013 0.014-192 192c-4.337 4.342-7.019 10.338-7.019 16.96s2.682 12.618 7.019 16.96v0l192 192c4.393 4.706 10.634 7.639 17.559 7.639 13.255 0 24-10.745 24-24 0-6.925-2.933-13.165-7.625-17.546l-0.014-0.013-151-151.040h518.040c13.255 0 24-10.745 24-24v0z" />
<glyph unicode="&#xe056;" glyph-name="arrow-elbow-up-right-light" data-tags="arrow-elbow-up-right-light" d="M880.96 623.040l-192-192c-4.274-3.991-10.032-6.441-16.361-6.441-13.255 0-24 10.745-24 24 0 6.33 2.45 12.087 6.454 16.375l-0.013-0.014 151 151.040h-494.040v-552c0-13.255-10.745-24-24-24s-24 10.745-24 24v0 576c0 13.255 10.745 24 24 24v0h518.040l-151 151.040c-3.991 4.274-6.441 10.032-6.441 16.361 0 13.255 10.745 24 24 24 6.33 0 12.087-2.45 16.375-6.454l-0.014 0.013 192-192c4.337-4.342 7.019-10.338 7.019-16.96s-2.682-12.618-7.019-16.96v0z" />
<glyph unicode="&#xe058;" glyph-name="arrow-left-light" data-tags="arrow-left-light" d="M888 448c0-13.255-10.745-24-24-24v0h-646.040l247-247.040c4.706-4.393 7.639-10.634 7.639-17.559 0-13.255-10.745-24-24-24-6.925 0-13.165 2.933-17.546 7.625l-0.013 0.014-288 288c-4.337 4.342-7.019 10.338-7.019 16.96s2.682 12.618 7.019 16.96v0l288 288c4.274 3.991 10.032 6.441 16.361 6.441 13.255 0 24-10.745 24-24 0-6.33-2.45-12.087-6.454-16.375l0.013 0.014-247-247.040h646.040c13.255 0 24-10.745 24-24v0z" />
<glyph unicode="&#xe05a;" glyph-name="arrow-circle-left-light" data-tags="arrow-circle-left-light" d="M512 856c-225.332 0-408-182.668-408-408s182.668-408 408-408c225.332 0 408 182.668 408 408v0c-0.273 225.222-182.778 407.727-407.974 408h-0.026zM512 88c-198.823 0-360 161.177-360 360s161.177 360 360 360c198.823 0 360-161.177 360-360v0c-0.228-198.731-161.269-359.773-359.979-360h-0.021zM696 448c0-13.255-10.745-24-24-24v0h-262.040l87-87.040c4.706-4.393 7.639-10.634 7.639-17.559 0-13.255-10.745-24-24-24-6.925 0-13.165 2.933-17.546 7.625l-0.013 0.014-128 128c-4.337 4.342-7.019 10.338-7.019 16.96s2.682 12.618 7.019 16.96v0l128 128c4.274 3.991 10.032 6.441 16.361 6.441 13.255 0 24-10.745 24-24 0-6.33-2.45-12.087-6.454-16.375l0.013 0.014-87-87.040h262.040c13.255 0 24-10.745 24-24v0z" />
<glyph unicode="&#xe05c;" glyph-name="arrow-line-down-light" data-tags="arrow-line-down-light" d="M207.040 495.040c-3.991 4.274-6.441 10.032-6.441 16.361 0 13.255 10.745 24 24 24 6.33 0 12.087-2.45 16.375-6.454l-0.014 0.013 247.040-247v550.040c0 13.255 10.745 24 24 24s24-10.745 24-24v0-550.040l247.040 247c4.274 3.991 10.032 6.441 16.361 6.441 13.255 0 24-10.745 24-24 0-6.33-2.45-12.087-6.454-16.375l0.013 0.014-288-288c-4.342-4.337-10.338-7.019-16.96-7.019s-12.618 2.682-16.96 7.019v0zM864 120h-704c-13.255 0-24-10.745-24-24s10.745-24 24-24v0h704c13.255 0 24 10.745 24 24s-10.745 24-24 24v0z" />
<glyph unicode="&#xe05e;" glyph-name="arrow-line-down-left-light" data-tags="arrow-line-down-left-light" d="M920 768c0-13.255-10.745-24-24-24v0h-704c-13.255 0-24 10.745-24 24s10.745 24 24 24v0h704c13.255 0 24-10.745 24-24v0zM719.040 592.96l-407.040-407.040v326.080c0 13.255-10.745 24-24 24s-24-10.745-24-24v0-384c0-13.255 10.745-24 24-24v0h384c13.255 0 24 10.745 24 24s-10.745 24-24 24v0h-326.080l407.040 407.040c3.991 4.274 6.441 10.032 6.441 16.361 0 13.255-10.745 24-24 24-6.33 0-12.087-2.45-16.375-6.454l0.014 0.013z" />
<glyph unicode="&#xe060;" glyph-name="arrow-line-down-right-light" data-tags="arrow-line-down-right-light" d="M888 800c0-13.255-10.745-24-24-24v0h-704c-13.255 0-24 10.745-24 24s10.745 24 24 24v0h704c13.255 0 24-10.745 24-24v0zM768 568c-13.255 0-24-10.745-24-24v0-326.080l-407.040 407.040c-4.274 3.991-10.032 6.441-16.361 6.441-13.255 0-24-10.745-24-24 0-6.33 2.45-12.087 6.454-16.375l-0.013 0.014 407.040-407.040h-326.080c-13.255 0-24-10.745-24-24s10.745-24 24-24v0h384c13.255 0 24 10.745 24 24v0 384c0 13.255-10.745 24-24 24v0z" />
<glyph unicode="&#xe062;" glyph-name="arrow-line-left-light" data-tags="arrow-line-left-light" d="M920 448c0-13.255-10.745-24-24-24v0h-550.040l247-247.040c4.706-4.393 7.639-10.634 7.639-17.559 0-13.255-10.745-24-24-24-6.925 0-13.165 2.933-17.546 7.625l-0.013 0.014-288 288c-4.337 4.342-7.019 10.338-7.019 16.96s2.682 12.618 7.019 16.96v0l288 288c4.274 3.991 10.032 6.441 16.361 6.441 13.255 0 24-10.745 24-24 0-6.33-2.45-12.087-6.454-16.375l0.013 0.014-247-247.040h550.040c13.255 0 24-10.745 24-24v0zM160 824c-13.255 0-24-10.745-24-24v0-704c0-13.255 10.745-24 24-24s24 10.745 24 24v0 704c0 13.255-10.745 24-24 24v0z" />
<glyph unicode="&#xe064;" glyph-name="arrow-line-right-light" data-tags="arrow-line-right-light" d="M752.96 464.96c4.337-4.342 7.019-10.338 7.019-16.96s-2.682-12.618-7.019-16.96v0l-288-288c-4.274-3.991-10.032-6.441-16.361-6.441-13.255 0-24 10.745-24 24 0 6.33 2.45 12.087 6.454 16.375l-0.013-0.014 247 247.040h-550.040c-13.255 0-24 10.745-24 24s10.745 24 24 24v0h550.040l-247 247.040c-3.991 4.274-6.441 10.032-6.441 16.361 0 13.255 10.745 24 24 24 6.33 0 12.087-2.45 16.375-6.454l-0.014 0.013zM864 824c-13.255 0-24-10.745-24-24v0-704c0-13.255 10.745-24 24-24s24 10.745 24 24v0 704c0 13.255-10.745 24-24 24v0z" />
<glyph unicode="&#xe066;" glyph-name="arrow-line-up-light" data-tags="arrow-line-up-light" d="M816.96 400.96c4.706-4.393 7.639-10.634 7.639-17.559 0-13.255-10.745-24-24-24-6.925 0-13.165 2.933-17.546 7.625l-0.013 0.014-247.040 247v-550.040c0-13.255-10.745-24-24-24s-24 10.745-24 24v0 550.040l-247.040-247c-4.274-3.991-10.032-6.441-16.361-6.441-13.255 0-24 10.745-24 24 0 6.33 2.45 12.087 6.454 16.375l-0.013-0.014 288 288c4.342 4.337 10.338 7.019 16.96 7.019s12.618-2.682 16.96-7.019v0zM864 824h-704c-13.255 0-24-10.745-24-24s10.745-24 24-24v0h704c13.255 0 24 10.745 24 24s-10.745 24-24 24v0z" />
<glyph unicode="&#xe068;" glyph-name="arrow-line-up-left-light" data-tags="arrow-line-up-left-light" d="M920 128c0-13.255-10.745-24-24-24v0h-704c-13.255 0-24 10.745-24 24s10.745 24 24 24v0h704c13.255 0 24-10.745 24-24v0zM288 360c13.255 0 24 10.745 24 24v0 326.040l407.040-407c4.274-3.991 10.032-6.441 16.361-6.441 13.255 0 24 10.745 24 24 0 6.33-2.45 12.087-6.454 16.375l0.013-0.014-407 407.040h326.040c13.255 0 24 10.745 24 24s-10.745 24-24 24v0h-384c-13.255 0-24-10.745-24-24v0-384c0-13.255 10.745-24 24-24v0z" />
<glyph unicode="&#xe06a;" glyph-name="arrow-line-up-right-light" data-tags="arrow-line-up-right-light" d="M888 96c0-13.255-10.745-24-24-24v0h-704c-13.255 0-24 10.745-24 24s10.745 24 24 24v0h704c13.255 0 24-10.745 24-24v0zM320 264c6.625 0.006 12.621 2.695 16.96 7.040v0l407.040 407v-326.040c0-13.255 10.745-24 24-24s24 10.745 24 24v0 384c0 13.255-10.745 24-24 24v0h-384c-13.255 0-24-10.745-24-24s10.745-24 24-24v0h326.040l-407-407.040c-4.337-4.342-7.019-10.338-7.019-16.96 0-13.247 10.733-23.988 23.978-24h0.001z" />
<glyph unicode="&#xe06c;" glyph-name="arrow-right-light" data-tags="arrow-right-light" d="M880.96 431.040l-288-288c-4.274-3.991-10.032-6.441-16.361-6.441-13.255 0-24 10.745-24 24 0 6.33 2.45 12.087 6.454 16.375l-0.013-0.014 247 247.040h-646.040c-13.255 0-24 10.745-24 24s10.745 24 24 24v0h646.040l-247 247.040c-3.991 4.274-6.441 10.032-6.441 16.361 0 13.255 10.745 24 24 24 6.33 0 12.087-2.45 16.375-6.454l-0.014 0.013 288-288c4.337-4.342 7.019-10.338 7.019-16.96s-2.682-12.618-7.019-16.96v0z" />
<glyph unicode="&#xe06e;" glyph-name="arrow-square-down-light" data-tags="arrow-square-down-light" d="M832 824h-640c-30.928 0-56-25.072-56-56v0-640c0-30.928 25.072-56 56-56v0h640c30.928 0 56 25.072 56 56v0 640c0 30.928-25.072 56-56 56v0zM840 128c0-4.418-3.582-8-8-8v0h-640c-4.418 0-8 3.582-8 8v0 640c0 4.418 3.582 8 8 8v0h640c4.418 0 8-3.582 8-8v0zM656.96 432.96c4.337-4.342 7.019-10.338 7.019-16.96s-2.682-12.618-7.019-16.96v0l-128-128c-4.342-4.337-10.338-7.019-16.96-7.019s-12.618 2.682-16.96 7.019v0l-128 128c-3.991 4.274-6.441 10.032-6.441 16.361 0 13.255 10.745 24 24 24 6.33 0 12.087-2.45 16.375-6.454l-0.014 0.013 87.040-87v262.040c0 13.255 10.745 24 24 24s24-10.745 24-24v0-262.040l87.040 87c4.342 4.337 10.338 7.019 16.96 7.019s12.618-2.682 16.96-7.019v0z" />
<glyph unicode="&#xe070;" glyph-name="arrow-square-down-left-light" data-tags="arrow-square-down-left-light" d="M832 824h-640c-30.928 0-56-25.072-56-56v0-640c0-30.928 25.072-56 56-56v0h640c30.928 0 56 25.072 56 56v0 640c0 30.928-25.072 56-56 56v0zM840 128c0-4.418-3.582-8-8-8v0h-640c-4.418 0-8 3.582-8 8v0 640c0 4.418 3.582 8 8 8v0h640c4.418 0 8-3.582 8-8v0zM656.96 592.96c4.337-4.342 7.019-10.338 7.019-16.96s-2.682-12.618-7.019-16.96v0l-215.040-215.040h134.080c13.255 0 24-10.745 24-24s-10.745-24-24-24v0h-192c-13.255 0-24 10.745-24 24v0 192c0 13.255 10.745 24 24 24s24-10.745 24-24v0-134.080l215.040 215.040c4.342 4.337 10.338 7.019 16.96 7.019s12.618-2.682 16.96-7.019v0z" />
<glyph unicode="&#xe072;" glyph-name="arrow-square-down-right-light" data-tags="arrow-square-down-right-light" d="M832 824h-640c-30.928 0-56-25.072-56-56v0-640c0-30.928 25.072-56 56-56v0h640c30.928 0 56 25.072 56 56v0 640c0 30.928-25.072 56-56 56v0zM840 128c0-4.418-3.582-8-8-8v0h-640c-4.418 0-8 3.582-8 8v0 640c0 4.418 3.582 8 8 8v0h640c4.418 0 8-3.582 8-8v0zM664 512v-192c0-13.255-10.745-24-24-24v0h-192c-13.255 0-24 10.745-24 24s10.745 24 24 24v0h134.080l-215.040 215.040c-3.991 4.274-6.441 10.032-6.441 16.361 0 13.255 10.745 24 24 24 6.33 0 12.087-2.45 16.375-6.454l-0.014 0.013 215.040-215.040v134.080c0 13.255 10.745 24 24 24s24-10.745 24-24v0z" />
<glyph unicode="&#xe074;" glyph-name="arrow-square-left-light" data-tags="arrow-square-left-light" d="M832 824h-640c-30.928 0-56-25.072-56-56v0-640c0-30.928 25.072-56 56-56v0h640c30.928 0 56 25.072 56 56v0 640c0 30.928-25.072 56-56 56v0zM840 128c0-4.418-3.582-8-8-8v0h-640c-4.418 0-8 3.582-8 8v0 640c0 4.418 3.582 8 8 8v0h640c4.418 0 8-3.582 8-8v0zM696 448c0-13.255-10.745-24-24-24v0h-262.040l87-87.040c4.706-4.393 7.639-10.634 7.639-17.559 0-13.255-10.745-24-24-24-6.925 0-13.165 2.933-17.546 7.625l-0.013 0.014-128 128c-4.337 4.342-7.019 10.338-7.019 16.96s2.682 12.618 7.019 16.96v0l128 128c4.274 3.991 10.032 6.441 16.361 6.441 13.255 0 24-10.745 24-24 0-6.33-2.45-12.087-6.454-16.375l0.013 0.014-87-87.040h262.040c13.255 0 24-10.745 24-24v0z" />
<glyph unicode="&#xe076;" glyph-name="arrow-square-right-light" data-tags="arrow-square-right-light" d="M832 824h-640c-30.928 0-56-25.072-56-56v0-640c0-30.928 25.072-56 56-56v0h640c30.928 0 56 25.072 56 56v0 640c0 30.928-25.072 56-56 56v0zM840 128c0-4.418-3.582-8-8-8v0h-640c-4.418 0-8 3.582-8 8v0 640c0 4.418 3.582 8 8 8v0h640c4.418 0 8-3.582 8-8v0zM688.96 464.96c4.337-4.342 7.019-10.338 7.019-16.96s-2.682-12.618-7.019-16.96v0l-128-128c-4.274-3.991-10.032-6.441-16.361-6.441-13.255 0-24 10.745-24 24 0 6.33 2.45 12.087 6.454 16.375l-0.013-0.014 87 87.040h-262.040c-13.255 0-24 10.745-24 24s10.745 24 24 24v0h262.040l-87 87.040c-3.991 4.274-6.441 10.032-6.441 16.361 0 13.255 10.745 24 24 24 6.33 0 12.087-2.45 16.375-6.454l-0.014 0.013z" />
<glyph unicode="&#xe078;" glyph-name="arrow-square-up-light" data-tags="arrow-square-up-light" d="M832 824h-640c-30.928 0-56-25.072-56-56v0-640c0-30.928 25.072-56 56-56v0h640c30.928 0 56 25.072 56 56v0 640c0 30.928-25.072 56-56 56v0zM840 128c0-4.418-3.582-8-8-8v0h-640c-4.418 0-8 3.582-8 8v0 640c0 4.418 3.582 8 8 8v0h640c4.418 0 8-3.582 8-8v0zM656.96 496.96c4.706-4.393 7.639-10.634 7.639-17.559 0-13.255-10.745-24-24-24-6.925 0-13.165 2.933-17.546 7.625l-0.013 0.014-87.040 87v-262.040c0-13.255-10.745-24-24-24s-24 10.745-24 24v0 262.040l-87.040-87c-4.274-3.991-10.032-6.441-16.361-6.441-13.255 0-24 10.745-24 24 0 6.33 2.45 12.087 6.454 16.375l-0.013-0.014 128 128c4.342 4.337 10.338 7.019 16.96 7.019s12.618-2.682 16.96-7.019v0z" />
<glyph unicode="&#xe07a;" glyph-name="arrow-square-up-left-light" data-tags="arrow-square-up-left-light" d="M832 824h-640c-30.928 0-56-25.072-56-56v0-640c0-30.928 25.072-56 56-56v0h640c30.928 0 56 25.072 56 56v0 640c0 30.928-25.072 56-56 56v0zM840 128c0-4.418-3.582-8-8-8v0h-640c-4.418 0-8 3.582-8 8v0 640c0 4.418 3.582 8 8 8v0h640c4.418 0 8-3.582 8-8v0zM656.96 336.96c4.706-4.393 7.639-10.634 7.639-17.559 0-13.255-10.745-24-24-24-6.925 0-13.165 2.933-17.546 7.625l-0.013 0.014-215.040 215.040v-134.080c0-13.255-10.745-24-24-24s-24 10.745-24 24v0 192c0 13.255 10.745 24 24 24v0h192c13.255 0 24-10.745 24-24s-10.745-24-24-24v0h-134.080z" />
<glyph unicode="&#xe07c;" glyph-name="arrow-square-up-right-light" data-tags="arrow-square-up-right-light" d="M832 824h-640c-30.928 0-56-25.072-56-56v0-640c0-30.928 25.072-56 56-56v0h640c30.928 0 56 25.072 56 56v0 640c0 30.928-25.072 56-56 56v0zM840 128c0-4.418-3.582-8-8-8v0h-640c-4.418 0-8 3.582-8 8v0 640c0 4.418 3.582 8 8 8v0h640c4.418 0 8-3.582 8-8v0zM664 576v-192c0-13.255-10.745-24-24-24s-24 10.745-24 24v0 134.080l-215.040-215.040c-4.274-3.991-10.032-6.441-16.361-6.441-13.255 0-24 10.745-24 24 0 6.33 2.45 12.087 6.454 16.375l-0.013-0.014 215.040 215.040h-134.080c-13.255 0-24 10.745-24 24s10.745 24 24 24v0h192c13.255 0 24-10.745 24-24v0z" />
<glyph unicode="&#xe07e;" glyph-name="arrow-u-down-left-light" data-tags="arrow-u-down-left-light" d="M920 512c-0.159-136.903-111.097-247.841-247.985-248h-486.055l151-151.040c4.706-4.393 7.639-10.634 7.639-17.559 0-13.255-10.745-24-24-24-6.925 0-13.165 2.933-17.546 7.625l-0.013 0.014-192 192c-4.337 4.342-7.019 10.338-7.019 16.96s2.682 12.618 7.019 16.96v0l192 192c4.274 3.991 10.032 6.441 16.361 6.441 13.255 0 24-10.745 24-24 0-6.33-2.45-12.087-6.454-16.375l0.013 0.014-151-151.040h486.040c110.457 0 200 89.543 200 200s-89.543 200-200 200v0h-352c-13.255 0-24 10.745-24 24s10.745 24 24 24v0h352c136.903-0.159 247.841-111.097 248-247.985v-0.015z" />
<glyph unicode="&#xe080;" glyph-name="arrow-u-down-right-light" data-tags="arrow-u-down-right-light" d="M912.96 271.040l-192-192c-4.274-3.991-10.032-6.441-16.361-6.441-13.255 0-24 10.745-24 24 0 6.33 2.45 12.087 6.454 16.375l-0.013-0.014 151 151.040h-486.040c-136.967 0-248 111.033-248 248s111.033 248 248 248v0h352c13.255 0 24-10.745 24-24s-10.745-24-24-24v0h-352c-110.457 0-200-89.543-200-200s89.543-200 200-200v0h486.040l-151 151.040c-3.991 4.274-6.441 10.032-6.441 16.361 0 13.255 10.745 24 24 24 6.33 0 12.087-2.45 16.375-6.454l-0.014 0.013 192-192c4.337-4.342 7.019-10.338 7.019-16.96s-2.682-12.618-7.019-16.96v0z" />
<glyph unicode="&#xe082;" glyph-name="arrow-u-left-down-light" data-tags="arrow-u-left-down-light" d="M824 608v-352c0-13.255-10.745-24-24-24s-24 10.745-24 24v0 352c0 110.457-89.543 200-200 200s-200-89.543-200-200v0-486.040l151.040 151c4.274 3.991 10.032 6.441 16.361 6.441 13.255 0 24-10.745 24-24 0-6.33-2.45-12.087-6.454-16.375l0.013 0.014-192-192c-4.342-4.337-10.338-7.019-16.96-7.019s-12.618 2.682-16.96 7.019v0l-192 192c-3.991 4.274-6.441 10.032-6.441 16.361 0 13.255 10.745 24 24 24 6.33 0 12.087-2.45 16.375-6.454l-0.014 0.013 151.040-151v486.040c0 136.967 111.033 248 248 248s248-111.033 248-248v0z" />
<glyph unicode="&#xe084;" glyph-name="arrow-u-left-up-light" data-tags="arrow-u-left-up-light" d="M824 640v-352c0-136.967-111.033-248-248-248s-248 111.033-248 248v0 486.040l-151.040-151c-4.274-3.991-10.032-6.441-16.361-6.441-13.255 0-24 10.745-24 24 0 6.33 2.45 12.087 6.454 16.375l-0.013-0.014 192 192c4.342 4.337 10.338 7.019 16.96 7.019s12.618-2.682 16.96-7.019v0l192-192c4.706-4.393 7.639-10.634 7.639-17.559 0-13.255-10.745-24-24-24-6.925 0-13.165 2.933-17.546 7.625l-0.013 0.014-151.040 151v-486.040c0-110.457 89.543-200 200-200s200 89.543 200 200v0 352c0 13.255 10.745 24 24 24s24-10.745 24-24v0z" />
<glyph unicode="&#xe086;" glyph-name="arrow-u-right-down-light" data-tags="arrow-u-right-down-light" d="M880.96 239.040l-192-192c-4.342-4.337-10.338-7.019-16.96-7.019s-12.618 2.682-16.96 7.019v0l-192 192c-3.991 4.274-6.441 10.032-6.441 16.361 0 13.255 10.745 24 24 24 6.33 0 12.087-2.45 16.375-6.454l-0.014 0.013 151.040-151v486.040c0 110.457-89.543 200-200 200s-200-89.543-200-200v0-352c0-13.255-10.745-24-24-24s-24 10.745-24 24v0 352c0 136.967 111.033 248 248 248s248-111.033 248-248v0-486.040l151.040 151c4.274 3.991 10.032 6.441 16.361 6.441 13.255 0 24-10.745 24-24 0-6.33-2.45-12.087-6.454-16.375l0.013 0.014z" />
<glyph unicode="&#xe088;" glyph-name="arrow-u-right-up-light" data-tags="arrow-u-right-up-light" d="M880.96 623.040c-4.342-4.337-10.338-7.019-16.96-7.019s-12.618 2.682-16.96 7.019v0l-151.040 151v-486.040c0-136.967-111.033-248-248-248s-248 111.033-248 248v0 352c0 13.255 10.745 24 24 24s24-10.745 24-24v0-352c0-110.457 89.543-200 200-200s200 89.543 200 200v0 486.040l-151.040-151c-4.274-3.991-10.032-6.441-16.361-6.441-13.255 0-24 10.745-24 24 0 6.33 2.45 12.087 6.454 16.375l-0.013-0.014 192 192c4.342 4.337 10.338 7.019 16.96 7.019s12.618-2.682 16.96-7.019v0l192-192c4.337-4.342 7.019-10.338 7.019-16.96s-2.682-12.618-7.019-16.96v0z" />
<glyph unicode="&#xe08a;" glyph-name="arrow-u-up-left-light" data-tags="arrow-u-up-left-light" d="M920 384c-0.159-136.903-111.097-247.841-247.985-248h-352.015c-13.255 0-24 10.745-24 24s10.745 24 24 24v0h352c110.457 0 200 89.543 200 200s-89.543 200-200 200v0h-486.040l151-151.040c4.706-4.393 7.639-10.634 7.639-17.559 0-13.255-10.745-24-24-24-6.925 0-13.165 2.933-17.546 7.625l-0.013 0.014-192 192c-4.337 4.342-7.019 10.338-7.019 16.96s2.682 12.618 7.019 16.96v0l192 192c4.274 3.991 10.032 6.441 16.361 6.441 13.255 0 24-10.745 24-24 0-6.33-2.45-12.087-6.454-16.375l0.013 0.014-151-151.040h486.040c136.903-0.159 247.841-111.097 248-247.985v-0.015z" />
<glyph unicode="&#xe08c;" glyph-name="arrow-u-up-right-light" data-tags="arrow-u-up-right-light" d="M687.040 432.96l151 151.040h-486.040c-110.457 0-200-89.543-200-200s89.543-200 200-200v0h352c13.255 0 24-10.745 24-24s-10.745-24-24-24v0h-352c-136.967 0-248 111.033-248 248s111.033 248 248 248v0h486.040l-151 151.040c-3.991 4.274-6.441 10.032-6.441 16.361 0 13.255 10.745 24 24 24 6.33 0 12.087-2.45 16.375-6.454l-0.014 0.013 192-192c4.337-4.342 7.019-10.338 7.019-16.96s-2.682-12.618-7.019-16.96v0l-192-192c-4.274-3.991-10.032-6.441-16.361-6.441-13.255 0-24 10.745-24 24 0 6.33 2.45 12.087 6.454 16.375l-0.013-0.014z" />
<glyph unicode="&#xe08e;" glyph-name="arrow-up-light" data-tags="arrow-up-light" d="M816.96 495.040c-4.342-4.337-10.338-7.019-16.96-7.019s-12.618 2.682-16.96 7.019v0l-247.040 247v-646.040c0-13.255-10.745-24-24-24s-24 10.745-24 24v0 646.040l-247.040-247c-4.274-3.991-10.032-6.441-16.361-6.441-13.255 0-24 10.745-24 24 0 6.33 2.45 12.087 6.454 16.375l-0.013-0.014 288 288c4.342 4.337 10.338 7.019 16.96 7.019s12.618-2.682 16.96-7.019v0l288-288c4.337-4.342 7.019-10.338 7.019-16.96s-2.682-12.618-7.019-16.96v0z" />
<glyph unicode="&#xe090;" glyph-name="arrow-up-left-light" data-tags="arrow-up-left-light" d="M784.96 175.040c-4.342-4.337-10.338-7.019-16.96-7.019s-12.618 2.682-16.96 7.019v0l-471.040 471.040v-358.080c0-13.255-10.745-24-24-24s-24 10.745-24 24v0 416c0 13.255 10.745 24 24 24v0h416c13.255 0 24-10.745 24-24s-10.745-24-24-24v0h-358.080l471.040-471.040c4.337-4.342 7.019-10.338 7.019-16.96s-2.682-12.618-7.019-16.96v0z" />
<glyph unicode="&#xe092;" glyph-name="arrow-up-right-light" data-tags="arrow-up-right-light" d="M792 704v-416c0-13.255-10.745-24-24-24s-24 10.745-24 24v0 358.080l-471.040-471.040c-4.274-3.991-10.032-6.441-16.361-6.441-13.255 0-24 10.745-24 24 0 6.33 2.45 12.087 6.454 16.375l-0.013-0.014 471.040 471.040h-358.080c-13.255 0-24 10.745-24 24s10.745 24 24 24v0h416c13.255 0 24-10.745 24-24v0z" />
<glyph unicode="&#xe094;" glyph-name="arrows-clockwise-light" data-tags="arrows-clockwise-light" d="M888 768v-192c0-13.255-10.745-24-24-24v0h-192c-13.255 0-24 10.745-24 24s10.745 24 24 24v0h134.080l-72.2 72c-58.838 59.089-140.174 95.735-230.069 96h-1.891c-0.306 0.001-0.667 0.002-1.029 0.002-88.842 0-169.384-35.538-228.185-93.174l0.054 0.053c-4.376-4.562-10.522-7.398-17.331-7.398-13.255 0-24 10.745-24 24 0 7.008 3.003 13.314 7.793 17.701l0.018 0.016c67.348 66.184 159.771 107.041 261.737 107.041 0.331 0 0.663 0 0.994-0.001h2.029c103.192-0.271 196.511-42.315 263.985-110.105l72.015-72.015v133.88c0 13.255 10.745 24 24 24s24-10.745 24-24v0zM751.24 221.12c-58.773-57.726-139.412-93.361-228.375-93.361-0.276 0-0.552 0-0.827 0.001h-1.798c-89.946 0.265-171.282 36.911-230.109 95.989l-72.211 72.251h134.080c13.255 0 24 10.745 24 24s-10.745 24-24 24v0h-192c-13.255 0-24-10.745-24-24v0-192c0-13.255 10.745-24 24-24s24 10.745 24 24v0 134.080l72-72.2c67.488-67.805 160.808-109.848 263.948-110.12h2.132c0.28-0.001 0.611-0.001 0.943-0.001 101.966 0 194.389 40.857 261.79 107.094l-0.053-0.052c4.808 4.404 7.811 10.71 7.811 17.718 0 13.255-10.745 24-24 24-6.809 0-12.955-2.835-17.323-7.389l-0.008-0.008z" />
<glyph unicode="&#xe096;" glyph-name="arrows-counter-clockwise-light" data-tags="arrows-counter-clockwise-light" d="M352 552h-192c-13.255 0-24 10.745-24 24v0 192c0 13.255 10.745 24 24 24s24-10.745 24-24v0-134.080l72 72c67.488 67.805 160.808 109.848 263.948 110.12h2.132c0.336 0.001 0.733 0.002 1.13 0.002 101.871 0 194.218-40.777 261.609-106.899l-0.059 0.057c4.128-4.303 6.669-10.156 6.669-16.602 0-13.255-10.745-24-24-24-6.247 0-11.937 2.387-16.207 6.299l0.018-0.016c-59.061 57.687-139.926 93.275-229.103 93.275-90.617 0-172.652-36.747-232.015-96.153l-0.002-0.002-72.2-72h134.080c13.255 0 24-10.745 24-24s-10.745-24-24-24v0zM864 344h-192c-13.255 0-24-10.745-24-24s10.745-24 24-24v0h134.080l-72.2-72c-58.838-59.089-140.174-95.735-230.069-96h-1.891c-0.233-0.001-0.509-0.001-0.785-0.001-88.962 0-169.601 35.634-228.423 93.408l0.048-0.047c-4.252 3.895-9.942 6.282-16.189 6.282-13.255 0-24-10.745-24-24 0-6.446 2.541-12.299 6.677-16.611l-0.008 0.008c67.354-66.184 159.782-107.041 261.753-107.041 0.326 0 0.652 0 0.978 0.001h2.029c103.192 0.271 196.511 42.315 263.985 110.105l0.015 0.015 72 72.2v-134.32c0-13.255 10.745-24 24-24s24 10.745 24 24v0 192c0 13.255-10.745 24-24 24v0z" />
<glyph unicode="&#xe098;" glyph-name="arrows-down-up-light" data-tags="arrows-down-up-light" d="M464.96 272.96c4.337-4.342 7.019-10.338 7.019-16.96s-2.682-12.618-7.019-16.96v0l-128-128c-4.342-4.337-10.338-7.019-16.96-7.019s-12.618 2.682-16.96 7.019v0l-128 128c-3.991 4.274-6.441 10.032-6.441 16.361 0 13.255 10.745 24 24 24 6.33 0 12.087-2.45 16.375-6.454l-0.014 0.013 87.040-87v582.040c0 13.255 10.745 24 24 24s24-10.745 24-24v0-582.040l87.040 87c4.342 4.337 10.338 7.019 16.96 7.019s12.618-2.682 16.96-7.019v0zM848.96 656.96l-128 128c-4.342 4.337-10.338 7.019-16.96 7.019s-12.618-2.682-16.96-7.019v0l-128-128c-3.991-4.274-6.441-10.032-6.441-16.361 0-13.255 10.745-24 24-24 6.33 0 12.087 2.45 16.375 6.454l-0.014-0.013 87.040 87v-582.040c0-13.255 10.745-24 24-24s24 10.745 24 24v0 582.040l87.040-87c4.274-3.991 10.032-6.441 16.361-6.441 13.255 0 24 10.745 24 24 0 6.33-2.45 12.087-6.454 16.375l0.013-0.014z" />
<glyph unicode="&#xe09a;" glyph-name="arrows-in-light" data-tags="arrows-in-light" d="M584 544v160c0 13.255 10.745 24 24 24s24-10.745 24-24v0-102.040l183.040 183c4.274 3.991 10.032 6.441 16.361 6.441 13.255 0 24-10.745 24-24 0-6.33-2.45-12.087-6.454-16.375l0.013 0.014-183.040-183.040h102.080c13.255 0 24-10.745 24-24s-10.745-24-24-24v0h-160c-13.255 0-24 10.745-24 24v0zM416 376h-160c-13.255 0-24-10.745-24-24s10.745-24 24-24v0h102.080l-183.040-183.040c-4.706-4.393-7.639-10.634-7.639-17.559 0-13.255 10.745-24 24-24 6.925 0 13.165 2.933 17.546 7.625l0.013 0.014 183.040 183.040v-102.080c0-13.255 10.745-24 24-24s24 10.745 24 24v0 160c0 13.255-10.745 24-24 24v0zM665.92 328h102.080c13.255 0 24 10.745 24 24s-10.745 24-24 24v0h-160c-13.255 0-24-10.745-24-24v0-160c0-13.255 10.745-24 24-24s24 10.745 24 24v0 102.080l183.040-183.040c4.274-3.991 10.032-6.441 16.361-6.441 13.255 0 24 10.745 24 24 0 6.33-2.45 12.087-6.454 16.375l0.013-0.014zM416 728c-13.255 0-24-10.745-24-24v0-102.040l-183.040 183c-4.274 3.991-10.032 6.441-16.361 6.441-13.255 0-24-10.745-24-24 0-6.33 2.45-12.087 6.454-16.375l-0.013 0.014 183.040-183.040h-102.080c-13.255 0-24-10.745-24-24s10.745-24 24-24v0h160c13.255 0 24 10.745 24 24v0 160c0 13.255-10.745 24-24 24v0z" />
<glyph unicode="&#xe09c;" glyph-name="arrows-in-cardinal-light" data-tags="arrows-in-cardinal-light" d="M367.040 687.040c-3.991 4.274-6.441 10.032-6.441 16.361 0 13.255 10.745 24 24 24 6.33 0 12.087-2.45 16.375-6.454l-0.014 0.013 87.040-87v230.040c0 13.255 10.745 24 24 24s24-10.745 24-24v0-230.040l87.040 87c4.274 3.991 10.032 6.441 16.361 6.441 13.255 0 24-10.745 24-24 0-6.33-2.45-12.087-6.454-16.375l0.013 0.014-128-128c-4.342-4.337-10.338-7.019-16.96-7.019s-12.618 2.682-16.96 7.019v0zM528.96 336.96c-4.342 4.337-10.338 7.019-16.96 7.019s-12.618-2.682-16.96-7.019v0l-128-128c-3.991-4.274-6.441-10.032-6.441-16.361 0-13.255 10.745-24 24-24 6.33 0 12.087 2.45 16.375 6.454l-0.014-0.013 87.040 87v-230.040c0-13.255 10.745-24 24-24s24 10.745 24 24v0 230.040l87.040-87c4.274-3.991 10.032-6.441 16.361-6.441 13.255 0 24 10.745 24 24 0 6.33-2.45 12.087-6.454 16.375l0.013-0.014zM928 472h-230.040l87 87.040c3.991 4.274 6.441 10.032 6.441 16.361 0 13.255-10.745 24-24 24-6.33 0-12.087-2.45-16.375-6.454l0.014 0.013-128-128c-4.337-4.342-7.019-10.338-7.019-16.96s2.682-12.618 7.019-16.96v0l128-128c4.274-3.991 10.032-6.441 16.361-6.441 13.255 0 24 10.745 24 24 0 6.33-2.45 12.087-6.454 16.375l0.013-0.014-87 87.040h230.040c13.255 0 24 10.745 24 24s-10.745 24-24 24v0zM400.96 464.96l-128 128c-4.274 3.991-10.032 6.441-16.361 6.441-13.255 0-24-10.745-24-24 0-6.33 2.45-12.087 6.454-16.375l-0.013 0.014 87-87.040h-230.040c-13.255 0-24-10.745-24-24s10.745-24 24-24v0h230.040l-87-87.040c-4.706-4.393-7.639-10.634-7.639-17.559 0-13.255 10.745-24 24-24 6.925 0 13.165 2.933 17.546 7.625l0.013 0.014 128 128c4.337 4.342 7.019 10.338 7.019 16.96s-2.682 12.618-7.019 16.96v0z" />
<glyph unicode="&#xe09e;" glyph-name="arrows-in-simple-light" data-tags="arrows-in-simple-light" d="M848.96 751.040l-215.040-215.040h134.080c13.255 0 24-10.745 24-24s-10.745-24-24-24v0h-192c-13.255 0-24 10.745-24 24v0 192c0 13.255 10.745 24 24 24s24-10.745 24-24v0-134.080l215.040 215.040c4.274 3.991 10.032 6.441 16.361 6.441 13.255 0 24-10.745 24-24 0-6.33-2.45-12.087-6.454-16.375l0.013 0.014zM448 408h-192c-13.255 0-24-10.745-24-24s10.745-24 24-24v0h134.080l-215.040-215.040c-4.706-4.393-7.639-10.634-7.639-17.559 0-13.255 10.745-24 24-24 6.925 0 13.165 2.933 17.546 7.625l0.013 0.014 215.040 215.040v-134.080c0-13.255 10.745-24 24-24s24 10.745 24 24v0 192c0 13.255-10.745 24-24 24v0z" />
<glyph unicode="&#xe0a0;" glyph-name="arrows-left-right-light" data-tags="arrows-left-right-light" d="M848.96 272.96c4.337-4.342 7.019-10.338 7.019-16.96s-2.682-12.618-7.019-16.96v0l-128-128c-4.274-3.991-10.032-6.441-16.361-6.441-13.255 0-24 10.745-24 24 0 6.33 2.45 12.087 6.454 16.375l-0.013-0.014 87 87.040h-582.040c-13.255 0-24 10.745-24 24s10.745 24 24 24v0h582.040l-87 87.040c-3.991 4.274-6.441 10.032-6.441 16.361 0 13.255 10.745 24 24 24 6.33 0 12.087-2.45 16.375-6.454l-0.014 0.013zM303.040 495.040c4.274-3.991 10.032-6.441 16.361-6.441 13.255 0 24 10.745 24 24 0 6.33-2.45 12.087-6.454 16.375l0.013-0.014-87 87.040h582.040c13.255 0 24 10.745 24 24s-10.745 24-24 24v0h-582.040l87 87.040c3.991 4.274 6.441 10.032 6.441 16.361 0 13.255-10.745 24-24 24-6.33 0-12.087-2.45-16.375-6.454l0.014 0.013-128-128c-4.337-4.342-7.019-10.338-7.019-16.96s2.682-12.618 7.019-16.96v0z" />
<glyph unicode="&#xe0a2;" glyph-name="arrows-out-light" data-tags="arrows-out-light" d="M856 768v-192c0-13.255-10.745-24-24-24s-24 10.745-24 24v0 134.080l-183.040-183.040c-4.274-3.991-10.032-6.441-16.361-6.441-13.255 0-24 10.745-24 24 0 6.33 2.45 12.087 6.454 16.375l-0.013-0.014 183.040 183.040h-134.080c-13.255 0-24 10.745-24 24s10.745 24 24 24v0h192c13.255 0 24-10.745 24-24v0zM399.040 368.96l-183.040-183.040v134.080c0 13.255-10.745 24-24 24s-24-10.745-24-24v0-192c0-13.255 10.745-24 24-24v0h192c13.255 0 24 10.745 24 24s-10.745 24-24 24v0h-134.080l183.040 183.040c3.991 4.274 6.441 10.032 6.441 16.361 0 13.255-10.745 24-24 24-6.33 0-12.087-2.45-16.375-6.454l0.014 0.013zM832 344c-13.255 0-24-10.745-24-24v0-134.080l-183.040 183.040c-4.274 3.991-10.032 6.441-16.361 6.441-13.255 0-24-10.745-24-24 0-6.33 2.45-12.087 6.454-16.375l-0.013 0.014 183.040-183.040h-134.080c-13.255 0-24-10.745-24-24s10.745-24 24-24v0h192c13.255 0 24 10.745 24 24v0 192c0 13.255-10.745 24-24 24v0zM249.92 744h134.080c13.255 0 24 10.745 24 24s-10.745 24-24 24v0h-192c-13.255 0-24-10.745-24-24v0-192c0-13.255 10.745-24 24-24s24 10.745 24 24v0 134.080l183.040-183.040c4.274-3.991 10.032-6.441 16.361-6.441 13.255 0 24 10.745 24 24 0 6.33-2.45 12.087-6.454 16.375l0.013-0.014z" />
<glyph unicode="&#xe0a4;" glyph-name="arrows-out-cardinal-light" data-tags="arrows-out-cardinal-light" d="M367.040 719.040c-4.337 4.342-7.019 10.338-7.019 16.96s2.682 12.618 7.019 16.96v0l128 128c4.342 4.337 10.338 7.019 16.96 7.019s12.618-2.682 16.96-7.019v0l128-128c4.706-4.393 7.639-10.634 7.639-17.559 0-13.255-10.745-24-24-24-6.925 0-13.165 2.933-17.546 7.625l-0.013 0.014-87.040 87v-230.040c0-13.255-10.745-24-24-24s-24 10.745-24 24v0 230.040l-87.040-87c-4.342-4.337-10.338-7.019-16.96-7.019s-12.618 2.682-16.96 7.019v0zM623.040 176.96l-87.040-87v230.040c0 13.255-10.745 24-24 24s-24-10.745-24-24v0-230.040l-87.040 87c-4.274 3.991-10.032 6.441-16.361 6.441-13.255 0-24-10.745-24-24 0-6.33 2.45-12.087 6.454-16.375l-0.013 0.014 128-128c4.342-4.337 10.338-7.019 16.96-7.019s12.618 2.682 16.96 7.019v0l128 128c3.991 4.274 6.441 10.032 6.441 16.361 0 13.255-10.745 24-24 24-6.33 0-12.087-2.45-16.375-6.454l0.014 0.013zM944.96 464.96l-128 128c-4.274 3.991-10.032 6.441-16.361 6.441-13.255 0-24-10.745-24-24 0-6.33 2.45-12.087 6.454-16.375l-0.013 0.014 87-87.040h-230.040c-13.255 0-24-10.745-24-24s10.745-24 24-24v0h230.040l-87-87.040c-4.706-4.393-7.639-10.634-7.639-17.559 0-13.255 10.745-24 24-24 6.925 0 13.165 2.933 17.546 7.625l0.013 0.014 128 128c4.337 4.342 7.019 10.338 7.019 16.96s-2.682 12.618-7.019 16.96v0zM153.96 424h230.040c13.255 0 24 10.745 24 24s-10.745 24-24 24v0h-230.040l87 87.040c3.991 4.274 6.441 10.032 6.441 16.361 0 13.255-10.745 24-24 24-6.33 0-12.087-2.45-16.375-6.454l0.014 0.013-128-128c-4.337-4.342-7.019-10.338-7.019-16.96s2.682-12.618 7.019-16.96v0l128-128c4.274-3.991 10.032-6.441 16.361-6.441 13.255 0 24 10.745 24 24 0 6.33-2.45 12.087-6.454 16.375l0.013-0.014z" />
<glyph unicode="&#xe0a6;" glyph-name="arrows-out-simple-light" data-tags="arrows-out-simple-light" d="M856 768v-192c0-13.255-10.745-24-24-24s-24 10.745-24 24v0 134.080l-215.040-215.040c-4.274-3.991-10.032-6.441-16.361-6.441-13.255 0-24 10.745-24 24 0 6.33 2.45 12.087 6.454 16.375l-0.013-0.014 215.040 215.040h-134.080c-13.255 0-24 10.745-24 24s10.745 24 24 24v0h192c13.255 0 24-10.745 24-24v0zM431.040 400.96l-215.040-215.040v134.080c0 13.255-10.745 24-24 24s-24-10.745-24-24v0-192c0-13.255 10.745-24 24-24v0h192c13.255 0 24 10.745 24 24s-10.745 24-24 24v0h-134.080l215.040 215.040c3.991 4.274 6.441 10.032 6.441 16.361 0 13.255-10.745 24-24 24-6.33 0-12.087-2.45-16.375-6.454l0.014 0.013z" />
<glyph unicode="&#xe0a8;" glyph-name="article-light" data-tags="article-light" d="M864 792h-704c-30.928 0-56-25.072-56-56v0-576c0-30.928 25.072-56 56-56v0h704c30.928 0 56 25.072 56 56v0 576c0 30.928-25.072 56-56 56v0zM872 160c0-4.418-3.582-8-8-8v0h-704c-4.418 0-8 3.582-8 8v0 576c0 4.418 3.582 8 8 8v0h704c4.418 0 8-3.582 8-8v0zM728 576c0-13.255-10.745-24-24-24v0h-384c-13.255 0-24 10.745-24 24s10.745 24 24 24v0h384c13.255 0 24-10.745 24-24v0zM728 448c0-13.255-10.745-24-24-24v0h-384c-13.255 0-24 10.745-24 24s10.745 24 24 24v0h384c13.255 0 24-10.745 24-24v0zM728 320c0-13.255-10.745-24-24-24v0h-384c-13.255 0-24 10.745-24 24s10.745 24 24 24v0h384c13.255 0 24-10.745 24-24v0z" />
<glyph unicode="&#xe0aa;" glyph-name="asterisk-light" data-tags="asterisk-light" d="M852.56 243.64c-4.27-7.030-11.886-11.655-20.581-11.655-4.556 0-8.816 1.27-12.445 3.475l0.106-0.060-283.64 170.2v-309.6c0-13.255-10.745-24-24-24s-24 10.745-24 24v0 309.6l-283.64-170.2c-3.533-2.131-7.799-3.394-12.358-3.4h-0.002c-0.026 0-0.056 0-0.086 0-13.255 0-24 10.745-24 24 0 8.709 4.638 16.334 11.579 20.54l0.107 0.060 285.76 171.4-285.72 171.4c-7.036 4.275-11.664 11.897-11.664 20.6 0 13.268 10.756 24.024 24.024 24.024 4.565 0 8.832-1.273 12.466-3.484l-0.106 0.060 283.64-170.2v309.6c0 13.255 10.745 24 24 24s24-10.745 24-24v0-309.6l283.64 170.2c3.528 2.15 7.795 3.424 12.36 3.424 13.268 0 24.024-10.756 24.024-24.024 0-8.703-4.628-16.325-11.557-20.54l-0.106-0.060-285.72-171.4 285.72-171.4c7.023-4.272 11.643-11.883 11.643-20.574 0-4.576-1.281-8.852-3.503-12.491l0.060 0.105z" />
<glyph unicode="&#xe0ac;" glyph-name="at-light" data-tags="at-light" d="M512 856c-225.332 0-408-182.668-408-408s182.668-408 408-408v0c84.52 0 173.24 25.4 237.28 68 6.499 4.367 10.719 11.691 10.719 20 0 13.265-10.753 24.019-24.019 24.019-4.956 0-9.561-1.501-13.386-4.073l0.086 0.054c-55.6-37-136.36-60-210.68-60-198.823 0-360 161.177-360 360s161.177 360 360 360c198.823 0 360-161.177 360-360v0c0-118.32-55.12-136-88-136s-88 17.68-88 136v160c0 13.255-10.745 24-24 24s-24-10.745-24-24v0-36c-33.781 37.046-82.249 60.201-136.125 60.201-101.62 0-184-82.38-184-184s82.38-184 184-184c63.827 0 120.063 32.498 153.064 81.851l0.42 0.668c21.68-53.12 62.64-82.72 118.64-82.72 85.16 0 136 68.8 136 184-0.273 225.222-182.778 407.727-407.974 408h-0.026zM512 312c-75.111 0-136 60.889-136 136s60.889 136 136 136c75.111 0 136-60.889 136-136v0c0-75.111-60.889-136-136-136v0z" />
<glyph unicode="&#xe0ae;" glyph-name="backspace-light" data-tags="backspace-light" d="M864 792h-589.88c-20.282-0.010-38.042-10.801-47.86-26.952l-0.14-0.248-182.68-304.44c-2.153-3.527-3.427-7.795-3.427-12.36s1.275-8.833 3.487-12.466l-0.060 0.106 182.68-304.44c9.958-16.399 27.718-27.19 47.999-27.2h589.881c30.928 0 56 25.072 56 56v0 576c0 30.928-25.072 56-56 56v0zM872 160c0-4.418-3.582-8-8-8v0h-589.88c-2.911 0.033-5.446 1.617-6.82 3.962l-0.020 0.038-175.28 292 175.28 292c1.394 2.383 3.929 3.967 6.835 4h589.885c4.418 0 8-3.582 8-8v0zM656.96 527.040l-79.040-79.040 79.040-79.040c4.706-4.393 7.639-10.634 7.639-17.559 0-13.255-10.745-24-24-24-6.925 0-13.165 2.933-17.546 7.625l-0.013 0.014-79.040 79.040-79.040-79.040c-4.274-3.991-10.032-6.441-16.361-6.441-13.255 0-24 10.745-24 24 0 6.33 2.45 12.087 6.454 16.375l-0.013-0.014 79.040 79.040-79.040 79.040c-3.991 4.274-6.441 10.032-6.441 16.361 0 13.255 10.745 24 24 24 6.33 0 12.087-2.45 16.375-6.454l-0.014 0.013 79.040-79.040 79.040 79.040c4.274 3.991 10.032 6.441 16.361 6.441 13.255 0 24-10.745 24-24 0-6.33-2.45-12.087-6.454-16.375l0.013 0.014z" />
<glyph unicode="&#xe0b0;" glyph-name="bag-light" data-tags="bag-light" d="M864 696h-168v8c0 101.62-82.38 184-184 184s-184-82.38-184-184v0-8h-168c-30.928 0-56-25.072-56-56v0-480c0-30.928 25.072-56 56-56v0h704c30.928 0 56 25.072 56 56v0 480c0 30.928-25.072 56-56 56v0zM376 704c0 75.111 60.889 136 136 136s136-60.889 136-136v0-8h-272zM872 160c0-4.418-3.582-8-8-8v0h-704c-4.418 0-8 3.582-8 8v0 480c0 4.418 3.582 8 8 8v0h168v-72c0-13.255 10.745-24 24-24s24 10.745 24 24v0 72h272v-72c0-13.255 10.745-24 24-24s24 10.745 24 24v0 72h168c4.418 0 8-3.582 8-8v0z" />
<glyph unicode="&#xe0b2;" glyph-name="bandaids-light" data-tags="bandaids-light" d="M726.96 448l116.52 116.52c27.64 27.529 44.743 65.618 44.743 107.703 0 83.947-68.053 152-152 152-42.084 0-80.174-17.103-107.698-44.738l-116.525-116.525-116.52 116.52c-27.529 27.64-65.618 44.743-107.703 44.743-83.947 0-152-68.053-152-152 0-42.084 17.103-80.174 44.738-107.698l116.525-116.525-116.52-116.52c-27.64-27.529-44.743-65.618-44.743-107.703 0-83.947 68.053-152 152-152 42.084 0 80.174 17.103 107.698 44.738l116.525 116.525 116.52-116.52c27.529-27.64 65.618-44.743 107.703-44.743 83.947 0 152 68.053 152 152 0 42.084-17.103 80.174-44.738 107.698l-0.005 0.005zM662.48 745.52v0c18.927 19.509 45.388 31.617 74.677 31.617 57.438 0 104-46.562 104-104 0-29.299-12.116-55.769-31.611-74.671l-0.027-0.026-116.52-116.52-147.040 147.080zM659.080 448l-147.080-147.080-147.080 147.080 147.080 147.080zM214.48 598.48c-19.83 18.97-32.156 45.644-32.156 75.196 0 57.438 46.562 104 104 104 29.552 0 56.226-12.326 75.159-32.118l0.037-0.039 116.52-116.52-147.040-147.080zM361.52 150.48c-18.97-19.83-45.644-32.156-75.196-32.156-57.438 0-104 46.562-104 104 0 29.552 12.326 56.226 32.118 75.159l0.039 0.037 116.52 116.52 147.040-147.040zM809.52 150.48c-18.818-18.809-44.811-30.442-73.52-30.442s-54.702 11.633-73.52 30.442l-116.56 116.52 147.080 147.080 116.52-116.56c18.809-18.818 30.442-44.811 30.442-73.52s-11.633-54.702-30.442-73.52v0zM472 448c0 22.091 17.909 40 40 40s40-17.909 40-40c0-22.091-17.909-40-40-40v0c-22.091 0-40 17.909-40 40v0z" />
<glyph unicode="&#xe0b4;" glyph-name="bank-light" data-tags="bank-light" d="M96 552h104v-272h-72c-13.255 0-24-10.745-24-24s10.745-24 24-24v0h768c13.255 0 24 10.745 24 24s-10.745 24-24 24v0h-72v272h104c13.247 0.010 23.982 10.751 23.982 24 0 8.6-4.523 16.143-11.321 20.381l-0.101 0.059-416 256c-3.574 2.228-7.913 3.549-12.56 3.549s-8.986-1.321-12.662-3.608l0.102 0.059-416-256c-6.899-4.297-11.422-11.84-11.422-20.44 0-13.249 10.735-23.99 23.981-24h0.001zM248 552h144v-272h-144zM584 552v-272h-144v272zM776 280h-144v272h144zM512 804l331.2-204h-662.4zM984 128c0-13.255-10.745-24-24-24v0h-896c-13.255 0-24 10.745-24 24s10.745 24 24 24v0h896c13.255 0 24-10.745 24-24v0z" />
<glyph unicode="&#xe0b6;" glyph-name="barbell-light" data-tags="barbell-light" d="M992 472h-40v136c0 30.928-25.072 56-56 56v0h-72v40c0 30.928-25.072 56-56 56v0h-96c-30.928 0-56-25.072-56-56v0-232h-208v232c0 30.928-25.072 56-56 56v0h-96c-30.928 0-56-25.072-56-56v0-40h-72c-30.928 0-56-25.072-56-56v0-136h-40c-13.255 0-24-10.745-24-24s10.745-24 24-24v0h40v-136c0-30.928 25.072-56 56-56v0h72v-40c0-30.928 25.072-56 56-56v0h96c30.928 0 56 25.072 56 56v0 232h208v-232c0-30.928 25.072-56 56-56v0h96c30.928 0 56 25.072 56 56v0 40h72c30.928 0 56 25.072 56 56v0 136h40c13.255 0 24 10.745 24 24s-10.745 24-24 24v0zM128 280c-4.418 0-8 3.582-8 8v0 320c0 4.418 3.582 8 8 8v0h72v-336zM360 192c0-4.418-3.582-8-8-8v0h-96c-4.418 0-8 3.582-8 8v0 512c0 4.418 3.582 8 8 8v0h96c4.418 0 8-3.582 8-8v0zM776 192c0-4.418-3.582-8-8-8v0h-96c-4.418 0-8 3.582-8 8v0 512c0 4.418 3.582 8 8 8v0h96c4.418 0 8-3.582 8-8v0zM904 288c0-4.418-3.582-8-8-8v0h-72v336h72c4.418 0 8-3.582 8-8v0z" />
<glyph unicode="&#xe0b8;" glyph-name="barcode-light" data-tags="barcode-light" d="M920 768v-160c0-13.255-10.745-24-24-24s-24 10.745-24 24v0 136h-136c-13.255 0-24 10.745-24 24s10.745 24 24 24v0h160c13.255 0 24-10.745 24-24v0zM288 152h-136v136c0 13.255-10.745 24-24 24s-24-10.745-24-24v0-160c0-13.255 10.745-24 24-24v0h160c13.255 0 24 10.745 24 24s-10.745 24-24 24v0zM896 312c-13.255 0-24-10.745-24-24v0-136h-136c-13.255 0-24-10.745-24-24s10.745-24 24-24v0h160c13.255 0 24 10.745 24 24v0 160c0 13.255-10.745 24-24 24v0zM128 584c13.255 0 24 10.745 24 24v0 136h136c13.255 0 24 10.745 24 24s-10.745 24-24 24v0h-160c-13.255 0-24-10.745-24-24v0-160c0-13.255 10.745-24 24-24v0zM320 632c-13.255 0-24-10.745-24-24v0-320c0-13.255 10.745-24 24-24s24 10.745 24 24v0 320c0 13.255-10.745 24-24 24v0zM728 288v320c0 13.255-10.745 24-24 24s-24-10.745-24-24v0-320c0-13.255 10.745-24 24-24s24 10.745 24 24v0zM576 632c-13.255 0-24-10.745-24-24v0-320c0-13.255 10.745-24 24-24s24 10.745 24 24v0 320c0 13.255-10.745 24-24 24v0zM448 632c-13.255 0-24-10.745-24-24v0-320c0-13.255 10.745-24 24-24s24 10.745 24 24v0 320c0 13.255-10.745 24-24 24v0z" />
<glyph unicode="&#xe0ba;" glyph-name="battery-charging-light" data-tags="battery-charging-light" d="M800 728h-672c-48.601 0-88-39.399-88-88v0-384c0-48.601 39.399-88 88-88v0h672c48.601 0 88 39.399 88 88v0 384c0 48.601-39.399 88-88 88v0zM840 256c0-22.091-17.909-40-40-40v0h-672c-22.091 0-40 17.909-40 40v0 384c0 22.091 17.909 40 40 40v0h672c22.091 0 40-17.909 40-40v0zM1016 576v-256c0-13.255-10.745-24-24-24s-24 10.745-24 24v0 256c0 13.255 10.745 24 24 24s24-10.745 24-24v0zM548.4 460.6c2.255-3.59 3.592-7.954 3.592-12.63 0-3.895-0.928-7.574-2.575-10.827l0.063 0.137-64-128c-4.026-7.94-12.129-13.286-21.48-13.286-13.258 0-24.006 10.748-24.006 24.006 0 3.907 0.933 7.596 2.589 10.857l-0.063-0.137 46.64 93.28h-89.16c-0.002 0-0.005 0-0.007 0-13.255 0-24 10.745-24 24 0 3.907 0.934 7.596 2.59 10.857l-0.063-0.137 64 128c4.026 7.94 12.129 13.286 21.48 13.286 13.258 0 24.006-10.748 24.006-24.006 0-3.907-0.933-7.596-2.589-10.857l0.063 0.137-46.64-93.28h89.16c8.581-0.010 16.106-4.521 20.341-11.299l0.059-0.101z" />
<glyph unicode="&#xe0bc;" glyph-name="battery-charging-vertical-light" data-tags="battery-charging-vertical-light" d="M596.4 428.6c2.255-3.59 3.592-7.954 3.592-12.63 0-3.895-0.928-7.574-2.575-10.827l0.063 0.137-64-128c-4.026-7.94-12.129-13.286-21.48-13.286-13.258 0-24.006 10.748-24.006 24.006 0 3.907 0.933 7.596 2.589 10.857l-0.063-0.137 46.64 93.28h-89.16c-0.002 0-0.005 0-0.007 0-13.255 0-24 10.745-24 24 0 3.907 0.934 7.596 2.59 10.857l-0.063-0.137 64 128c4.026 7.94 12.129 13.286 21.48 13.286 13.258 0 24.006-10.748 24.006-24.006 0-3.907-0.933-7.596-2.589-10.857l0.063 0.137-46.64-93.28h89.16c8.581-0.010 16.106-4.521 20.341-11.299l0.059-0.101zM384 904h256c13.255 0 24 10.745 24 24s-10.745 24-24 24v0h-256c-13.255 0-24-10.745-24-24s10.745-24 24-24v0zM792 736v-672c0-48.601-39.399-88-88-88v0h-384c-48.601 0-88 39.399-88 88v0 672c0 48.601 39.399 88 88 88v0h384c48.601 0 88-39.399 88-88v0zM744 736c0 22.091-17.909 40-40 40v0h-384c-22.091 0-40-17.909-40-40v0-672c0-22.091 17.909-40 40-40v0h384c22.091 0 40 17.909 40 40v0z" />
<glyph unicode="&#xe0be;" glyph-name="battery-empty-light" data-tags="battery-empty-light" d="M800 728h-672c-48.601 0-88-39.399-88-88v0-384c0-48.601 39.399-88 88-88v0h672c48.601 0 88 39.399 88 88v0 384c0 48.601-39.399 88-88 88v0zM840 256c0-22.091-17.909-40-40-40v0h-672c-22.091 0-40 17.909-40 40v0 384c0 22.091 17.909 40 40 40v0h672c22.091 0 40-17.909 40-40v0zM1016 576v-256c0-13.255-10.745-24-24-24s-24 10.745-24 24v0 256c0 13.255 10.745 24 24 24s24-10.745 24-24v0z" />
<glyph unicode="&#xe0c0;" glyph-name="battery-full-light" data-tags="battery-full-light" d="M800 728h-672c-48.601 0-88-39.399-88-88v0-384c0-48.601 39.399-88 88-88v0h672c48.601 0 88 39.399 88 88v0 384c0 48.601-39.399 88-88 88v0zM840 256c0-22.091-17.909-40-40-40v0h-672c-22.091 0-40 17.909-40 40v0 384c0 22.091 17.909 40 40 40v0h672c22.091 0 40-17.909 40-40v0zM728 576v-256c0-13.255-10.745-24-24-24s-24 10.745-24 24v0 256c0 13.255 10.745 24 24 24s24-10.745 24-24v0zM568 576v-256c0-13.255-10.745-24-24-24s-24 10.745-24 24v0 256c0 13.255 10.745 24 24 24s24-10.745 24-24v0zM408 576v-256c0-13.255-10.745-24-24-24s-24 10.745-24 24v0 256c0 13.255 10.745 24 24 24s24-10.745 24-24v0zM248 576v-256c0-13.255-10.745-24-24-24s-24 10.745-24 24v0 256c0 13.255 10.745 24 24 24s24-10.745 24-24v0zM1016 576v-256c0-13.255-10.745-24-24-24s-24 10.745-24 24v0 256c0 13.255 10.745 24 24 24s24-10.745 24-24v0z" />
<glyph unicode="&#xe0c2;" glyph-name="battery-high-light" data-tags="battery-high-light" d="M800 728h-672c-48.601 0-88-39.399-88-88v0-384c0-48.601 39.399-88 88-88v0h672c48.601 0 88 39.399 88 88v0 384c0 48.601-39.399 88-88 88v0zM840 256c0-22.091-17.909-40-40-40v0h-672c-22.091 0-40 17.909-40 40v0 384c0 22.091 17.909 40 40 40v0h672c22.091 0 40-17.909 40-40v0zM568 576v-256c0-13.255-10.745-24-24-24s-24 10.745-24 24v0 256c0 13.255 10.745 24 24 24s24-10.745 24-24v0zM408 576v-256c0-13.255-10.745-24-24-24s-24 10.745-24 24v0 256c0 13.255 10.745 24 24 24s24-10.745 24-24v0zM248 576v-256c0-13.255-10.745-24-24-24s-24 10.745-24 24v0 256c0 13.255 10.745 24 24 24s24-10.745 24-24v0zM1016 576v-256c0-13.255-10.745-24-24-24s-24 10.745-24 24v0 256c0 13.255 10.745 24 24 24s24-10.745 24-24v0z" />
<glyph unicode="&#xe0c4;" glyph-name="battery-low-light" data-tags="battery-low-light" d="M800 728h-672c-48.601 0-88-39.399-88-88v0-384c0-48.601 39.399-88 88-88v0h672c48.601 0 88 39.399 88 88v0 384c0 48.601-39.399 88-88 88v0zM840 256c0-22.091-17.909-40-40-40v0h-672c-22.091 0-40 17.909-40 40v0 384c0 22.091 17.909 40 40 40v0h672c22.091 0 40-17.909 40-40v0zM248 576v-256c0-13.255-10.745-24-24-24s-24 10.745-24 24v0 256c0 13.255 10.745 24 24 24s24-10.745 24-24v0zM1016 576v-256c0-13.255-10.745-24-24-24s-24 10.745-24 24v0 256c0 13.255 10.745 24 24 24s24-10.745 24-24v0z" />
<glyph unicode="&#xe0c6;" glyph-name="battery-medium-light" data-tags="battery-medium-light" d="M800 728h-672c-48.601 0-88-39.399-88-88v0-384c0-48.601 39.399-88 88-88v0h672c48.601 0 88 39.399 88 88v0 384c0 48.601-39.399 88-88 88v0zM840 256c0-22.091-17.909-40-40-40v0h-672c-22.091 0-40 17.909-40 40v0 384c0 22.091 17.909 40 40 40v0h672c22.091 0 40-17.909 40-40v0zM408 576v-256c0-13.255-10.745-24-24-24s-24 10.745-24 24v0 256c0 13.255 10.745 24 24 24s24-10.745 24-24v0zM248 576v-256c0-13.255-10.745-24-24-24s-24 10.745-24 24v0 256c0 13.255 10.745 24 24 24s24-10.745 24-24v0zM1016 576v-256c0-13.255-10.745-24-24-24s-24 10.745-24 24v0 256c0 13.255 10.745 24 24 24s24-10.745 24-24v0z" />
<glyph unicode="&#xe0c8;" glyph-name="battery-warning-light" data-tags="battery-warning-light" d="M800 728h-672c-48.601 0-88-39.399-88-88v0-384c0-48.601 39.399-88 88-88v0h672c48.601 0 88 39.399 88 88v0 384c0 48.601-39.399 88-88 88v0zM840 256c0-22.091-17.909-40-40-40v0h-672c-22.091 0-40 17.909-40 40v0 384c0 22.091 17.909 40 40 40v0h672c22.091 0 40-17.909 40-40v0zM1016 576v-256c0-13.255-10.745-24-24-24s-24 10.745-24 24v0 256c0 13.255 10.745 24 24 24s24-10.745 24-24v0zM440 464v112c0 13.255 10.745 24 24 24s24-10.745 24-24v0-112c0-13.255-10.745-24-24-24s-24 10.745-24 24v0zM504 336c0-22.091-17.909-40-40-40s-40 17.909-40 40c0 22.091 17.909 40 40 40v0c22.091 0 40-17.909 40-40v0z" />
<glyph unicode="&#xe0ca;" glyph-name="battery-warning-vertical-light" data-tags="battery-warning-vertical-light" d="M488 416v160c0 13.255 10.745 24 24 24s24-10.745 24-24v0-160c0-13.255-10.745-24-24-24s-24 10.745-24 24v0zM512 312c-22.091 0-40-17.909-40-40s17.909-40 40-40c22.091 0 40 17.909 40 40v0c0 22.091-17.909 40-40 40v0zM384 904h256c13.255 0 24 10.745 24 24s-10.745 24-24 24v0h-256c-13.255 0-24-10.745-24-24s10.745-24 24-24v0zM792 736v-672c0-48.601-39.399-88-88-88v0h-384c-48.601 0-88 39.399-88 88v0 672c0 48.601 39.399 88 88 88v0h384c48.601 0 88-39.399 88-88v0zM744 736c0 22.091-17.909 40-40 40v0h-384c-22.091 0-40-17.909-40-40v0-672c0-22.091 17.909-40 40-40v0h384c22.091 0 40 17.909 40 40v0z" />
<glyph unicode="&#xe0cc;" glyph-name="bed-light" data-tags="bed-light" d="M864 664h-744v104c0 13.255-10.745 24-24 24s-24-10.745-24-24v0-640c0-13.255 10.745-24 24-24s24 10.745 24 24v0 136h848v-136c0-13.255 10.745-24 24-24s24 10.745 24 24v0 384c0 83.947-68.053 152-152 152v0zM120 616h304v-304h-304zM472 312v304h392c57.438 0 104-46.562 104-104v0-200z" />
<glyph unicode="&#xe0ce;" glyph-name="bell-light" data-tags="bell-light" d="M880.28 252.24c-22.64 38.96-56.28 148.84-56.28 291.76 0 172.313-139.687 312-312 312s-312-139.687-312-312v0c0-142.96-33.68-252.8-56.32-291.76-4.803-8.089-7.642-17.833-7.642-28.24 0-30.915 25.050-55.978 55.96-56h169.922c12.241-72.715 74.732-127.424 150-127.424s137.759 54.709 149.875 126.53l0.125 0.893h170.080c30.877 0.067 55.882 25.113 55.882 56 0 10.407-2.839 20.151-7.784 28.5l0.142-0.259zM512 88c-48.909 0.016-89.925 33.791-101.013 79.288l-0.147 0.712h202.32c-11.235-46.209-52.251-79.984-101.158-80h-0.002zM838.84 220c-1.309-2.4-3.815-4.001-6.694-4.001-0.037 0-0.075 0-0.112 0.001h-640.034c-0.032 0-0.069-0.001-0.106-0.001-2.879 0-5.384 1.601-6.674 3.961l-0.020 0.040c-0.674 1.147-1.072 2.527-1.072 4s0.398 2.853 1.092 4.038l-0.020-0.038c30.28 52 62.8 173.24 62.8 316 0 145.803 118.197 264 264 264s264-118.197 264-264v0c0-142.72 32.56-263.8 62.84-316 0.674-1.147 1.072-2.527 1.072-4s-0.398-2.853-1.092-4.038l0.020 0.038z" />
<glyph unicode="&#xe0d0;" glyph-name="bell-simple-light" data-tags="bell-simple-light" d="M664 64c0-13.255-10.745-24-24-24v0h-256c-13.255 0-24 10.745-24 24s10.745 24 24 24v0h256c13.255 0 24-10.745 24-24v0zM880.44 196c-9.697-16.843-27.597-28.001-48.104-28.001-0.104 0-0.208 0-0.312 0.001h-640.024c-30.877 0.067-55.882 25.113-55.882 56 0 10.407 2.839 20.151 7.784 28.5l-0.142-0.259c22.6 38.96 56.24 148.8 56.24 291.76 0 172.313 139.687 312 312 312s312-139.687 312-312v0c0-142.92 33.68-252.8 56.32-291.76 4.836-8.075 7.695-17.815 7.695-28.222 0-10.324-2.814-19.991-7.717-28.276l0.141 0.258zM838.8 228c-30.28 52-62.8 173.28-62.8 316 0 145.803-118.197 264-264 264s-264-118.197-264-264v0c0-142.76-32.56-264-62.84-316-0.674-1.147-1.072-2.527-1.072-4s0.398-2.853 1.092-4.038l-0.020 0.038c1.309-2.4 3.815-4.001 6.694-4.001 0.037 0 0.075 0 0.112 0.001h640.034c0.032 0 0.069-0.001 0.106-0.001 2.879 0 5.384 1.601 6.674 3.961l0.020 0.040c0.674 1.147 1.072 2.527 1.072 4s-0.398 2.853-1.092 4.038l0.020-0.038z" />
<glyph unicode="&#xe0d2;" glyph-name="bell-simple-slash-light" data-tags="bell-simple-slash-light" d="M209.76 816c-4.27 3.972-10.014 6.41-16.327 6.41-13.255 0-24-10.745-24-24 0-5.434 1.806-10.447 4.851-14.47l-0.044 0.060 71-78.24c-28.407-45.915-45.241-101.59-45.241-161.197 0-0.198 0-0.396 0.001-0.594v0.031c0-142.96-33.68-252.8-56.32-291.76-4.803-8.089-7.642-17.833-7.642-28.24 0-30.915 25.050-55.978 55.96-56h542.122l80-88c4.408-4.832 10.731-7.852 17.76-7.852 13.261 0 24.012 10.75 24.012 24.012 0 6.233-2.375 11.911-6.269 16.179l0.017-0.019zM192 216c-0.032 0-0.069-0.001-0.106-0.001-2.879 0-5.384 1.601-6.674 3.961l-0.020 0.040c-0.674 1.147-1.072 2.527-1.072 4s0.398 2.853 1.092 4.038l-0.020-0.038c30.24 52 62.8 173.24 62.8 316 0 0.148 0 0.324 0 0.5 0 45.399 11.524 88.107 31.807 125.357l-0.686-1.377 411.36-452.48zM664 64c0-13.255-10.745-24-24-24v0h-256c-13.255 0-24 10.745-24 24s10.745 24 24 24v0h256c13.255 0 24-10.745 24-24v0zM853.080 250.48c-2.585-1.063-5.585-1.68-8.73-1.68-0.025 0-0.049 0-0.074 0h0.004c-10.092 0.010-18.725 6.249-22.263 15.078l-0.057 0.162c-28.8 73.24-45.96 177.92-45.96 280 0 0.006 0 0.013 0 0.019 0 145.803-118.197 264-264 264-47.872 0-92.768-12.742-131.482-35.019l1.282 0.68c-3.501-2.112-7.73-3.361-12.25-3.361-13.255 0-24 10.745-24 24 0 9.050 5.009 16.93 12.406 21.019l0.123 0.063c44.249 25.541 97.325 40.61 153.92 40.61 172.313 0 312-139.687 312-312 0-0.018 0-0.035 0-0.053v0.003c0-142.8 32.64-236.96 42.64-262.44 1.045-2.593 1.651-5.599 1.651-8.747 0-10.091-6.228-18.727-15.049-22.275l-0.161-0.057z" />
<glyph unicode="&#xe0d4;" glyph-name="bell-slash-light" data-tags="bell-slash-light" d="M209.76 816c-4.27 3.972-10.014 6.41-16.327 6.41-13.255 0-24-10.745-24-24 0-5.434 1.806-10.447 4.851-14.47l-0.044 0.060 71-78.24c-28.407-45.915-45.241-101.59-45.241-161.197 0-0.198 0-0.396 0.001-0.594v0.031c0-142.96-33.68-252.8-56.32-291.76-4.803-8.089-7.642-17.833-7.642-28.24 0-30.915 25.050-55.978 55.96-56h170.002c12.241-72.715 74.732-127.424 150-127.424s137.759 54.709 149.875 126.53l0.125 0.893h72l80-88c4.408-4.832 10.731-7.852 17.76-7.852 13.261 0 24.012 10.75 24.012 24.012 0 6.233-2.375 11.911-6.269 16.179l0.017-0.019zM512 88c-48.909 0.016-89.925 33.791-101.013 79.288l-0.147 0.712h202.32c-11.235-46.209-52.251-79.984-101.158-80h-0.002zM192 216c-0.032 0-0.069-0.001-0.106-0.001-2.879 0-5.384 1.601-6.674 3.961l-0.020 0.040c-0.674 1.147-1.072 2.527-1.072 4s0.398 2.853 1.092 4.038l-0.020-0.038c30.24 52 62.8 173.24 62.8 316 0 0.148 0 0.324 0 0.5 0 45.399 11.524 88.107 31.807 125.357l-0.686-1.377 411.36-452.48zM853.16 250.48c-2.585-1.063-5.585-1.68-8.73-1.68-0.025 0-0.049 0-0.074 0h0.004c-10.092 0.010-18.725 6.249-22.263 15.078l-0.057 0.162c-28.8 73.24-45.96 177.92-45.96 280 0 0.019 0 0.042 0 0.065 0 145.803-118.197 264-264 264-47.904 0-92.829-12.759-131.56-35.064l1.28 0.68c-3.501-2.112-7.73-3.361-12.25-3.361-13.255 0-24 10.745-24 24 0 9.050 5.009 16.93 12.406 21.019l0.123 0.063c44.249 25.541 97.325 40.61 153.92 40.61 172.313 0 312-139.687 312-312 0-0.018 0-0.035 0-0.053v0.003c0-142.8 32.64-236.96 42.64-262.44 1.045-2.593 1.651-5.599 1.651-8.747 0-10.091-6.228-18.727-15.049-22.275l-0.161-0.057z" />
<glyph unicode="&#xe0d6;" glyph-name="bicycle-light" data-tags="bicycle-light" d="M832 504c-0.039 0-0.084 0-0.13 0-25.659 0-50.088-5.266-72.265-14.776l1.195 0.456-111 190.32h118.2c22.091 0 40-17.909 40-40v0c0-13.255 10.745-24 24-24s24 10.745 24 24v0c0 48.601-39.399 88-88 88v0h-160c-13.227-0.037-23.935-10.768-23.935-24 0-4.418 1.194-8.558 3.277-12.113l-0.061 0.113 53.6-92h-248.44l-67.72 116c-4.216 7.206-11.908 11.976-20.717 12h-112.003c-13.255 0-24-10.745-24-24s10.745-24 24-24v0h98.2l60-102.56-70.2-95.92c-25.672 14.356-56.329 22.81-88.96 22.81-102.106 0-184.88-82.774-184.88-184.88s82.774-184.88 184.88-184.88c102.106 0 184.88 82.774 184.88 184.88 0 52.552-21.927 99.984-57.13 133.644l-0.069 0.066 57.72 78.84 130.84-224c4.223-7.217 11.933-11.991 20.759-12h0.001c4.426 0.003 8.567 1.221 12.108 3.34l-0.108-0.060c7.167 4.24 11.898 11.93 11.898 20.726 0 4.448-1.21 8.614-3.32 12.186l0.061-0.112-128.28 220h248.44l50.52-86.64c-43.551-33.98-71.291-86.471-71.291-145.44 0-101.62 82.38-184 184-184s184 82.38 184 184c0 101.62-82.38 184-184 184-0.024 0-0.048 0-0.072 0h0.004zM328 320c0-0.007 0-0.015 0-0.023 0-75.111-60.889-136-136-136s-136 60.889-136 136c0 75.111 60.889 136 136 136 21.644 0 42.108-5.056 60.274-14.052l-0.794 0.356-78.88-108c-2.885-3.916-4.618-8.836-4.618-14.16 0-13.265 10.753-24.018 24.018-24.018 7.94 0 14.981 3.853 19.353 9.792l0.047 0.066 78.8 108c23.392-24.317 37.8-57.424 37.8-93.896 0-0.022 0-0.045 0-0.067v0.003zM832 184c-74.984 0.168-135.704 60.993-135.704 136 0 41.325 18.431 78.344 47.521 103.287l0.183 0.153 67.28-115.44c4.223-7.217 11.933-11.991 20.759-12h0.001c4.426 0.003 8.567 1.221 12.108 3.34l-0.108-0.060c7.167 4.24 11.898 11.93 11.898 20.726 0 4.448-1.21 8.614-3.32 12.186l0.061-0.112-67.44 115.64c13.895 5.244 29.958 8.28 46.729 8.28 75.111 0 136-60.889 136-136 0-75.1-60.872-135.982-135.967-136h-0.002z" />
<glyph unicode="&#xe0da;" glyph-name="bluetooth-light" data-tags="bluetooth-light" d="M782.4 275.2l-230.4 172.8 230.4 172.8c5.855 4.425 9.6 11.375 9.6 19.2s-3.745 14.775-9.54 19.156l-0.060 0.044-256 192c-3.961 2.997-8.97 4.8-14.4 4.8-13.255 0-24-10.745-24-24v0-336l-217.6 163.2c-3.961 2.997-8.97 4.8-14.4 4.8-13.255 0-24-10.745-24-24 0-7.825 3.745-14.775 9.54-19.156l0.060-0.044 230.4-172.8-230.4-172.8c-5.855-4.425-9.6-11.375-9.6-19.2 0-13.255 10.745-24 24-24 5.43 0 10.439 1.803 14.46 4.844l-0.060-0.044 217.6 163.2v-336c0-13.255 10.745-24 24-24 5.43 0 10.439 1.803 14.46 4.844l-0.060-0.044 256 192c5.855 4.425 9.6 11.375 9.6 19.2s-3.745 14.775-9.54 19.156l-0.060 0.044zM536 784l192-144-192-144zM536 112v288l192-144z" />
<glyph unicode="&#xe0dc;" glyph-name="bluetooth-connected-light" data-tags="bluetooth-connected-light" d="M782.4 275.2l-230.4 172.8 230.4 172.8c5.855 4.425 9.6 11.375 9.6 19.2s-3.745 14.775-9.54 19.156l-0.060 0.044-256 192c-3.961 2.997-8.97 4.8-14.4 4.8-13.255 0-24-10.745-24-24v0-336l-217.6 163.2c-3.961 2.997-8.97 4.8-14.4 4.8-13.255 0-24-10.745-24-24 0-7.825 3.745-14.775 9.54-19.156l0.060-0.044 230.4-172.8-230.4-172.8c-5.855-4.425-9.6-11.375-9.6-19.2 0-13.255 10.745-24 24-24 5.43 0 10.439 1.803 14.46 4.844l-0.060-0.044 217.6 163.2v-336c0-13.255 10.745-24 24-24 5.43 0 10.439 1.803 14.46 4.844l-0.060-0.044 256 192c5.855 4.425 9.6 11.375 9.6 19.2s-3.745 14.775-9.54 19.156l-0.060 0.044zM536 784l192-144-192-144zM536 112v288l192-144zM240 408c-22.091 0-40 17.909-40 40s17.909 40 40 40c22.091 0 40-17.909 40-40v0c0-22.091-17.909-40-40-40v0zM856 448c0-22.091-17.909-40-40-40s-40 17.909-40 40c0 22.091 17.909 40 40 40v0c22.091 0 40-17.909 40-40v0z" />
<glyph unicode="&#xe0de;" glyph-name="bluetooth-slash-light" data-tags="bluetooth-slash-light" d="M881.76 112l-640 704c-4.27 3.972-10.014 6.41-16.327 6.41-13.255 0-24-10.745-24-24 0-5.434 1.806-10.447 4.851-14.47l-0.044 0.060 289.28-318.2-253.92-190.6c-5.855-4.425-9.6-11.375-9.6-19.2 0-13.255 10.745-24 24-24 5.43 0 10.439 1.803 14.46 4.844l-0.060-0.044 217.6 163.2v-336c0-13.255 10.745-24 24-24 5.43 0 10.439 1.803 14.46 4.844l-0.060-0.044 209.12 156.84 110.72-121.64c4.408-4.832 10.731-7.852 17.76-7.852 13.261 0 24.012 10.75 24.012 24.012 0 6.233-2.375 11.911-6.269 16.179l0.017-0.019zM536 112v288l60.36-45.24 106.72-117.44zM488 673.48v158.52c0 13.255 10.745 24 24 24 5.43 0 10.439-1.803 14.46-4.844l-0.060 0.044 256-192c5.855-4.425 9.6-11.375 9.6-19.2s-3.745-14.775-9.54-19.156l-0.060-0.044-134.12-100.8c-3.961-2.997-8.97-4.8-14.4-4.8-13.255 0-24 10.745-24 24 0 7.825 3.745 14.775 9.54 19.156l0.060 0.044 108.52 81.6-192 144v-110.52c0-13.255-10.745-24-24-24s-24 10.745-24 24v0z" />
<glyph unicode="&#xe0e0;" glyph-name="bluetooth-x-light" data-tags="bluetooth-x-light" d="M718.4 275.2l-230.4 172.8 102.4 76.8c5.855 4.425 9.6 11.375 9.6 19.2 0 13.255-10.745 24-24 24-5.43 0-10.439-1.803-14.46-4.844l0.060 0.044-89.6-67.2v288l89.6-67.2c3.961-2.997 8.97-4.8 14.4-4.8 13.255 0 24 10.745 24 24 0 7.825-3.745 14.775-9.54 19.156l-0.060 0.044-128 96c-3.961 2.997-8.97 4.8-14.4 4.8-13.255 0-24-10.745-24-24v0-336l-217.6 163.2c-3.961 2.997-8.97 4.8-14.4 4.8-13.255 0-24-10.745-24-24 0-7.825 3.745-14.775 9.54-19.156l0.060-0.044 230.4-172.8-230.4-172.8c-5.855-4.425-9.6-11.375-9.6-19.2 0-13.255 10.745-24 24-24 5.43 0 10.439 1.803 14.46 4.844l-0.060-0.044 217.6 163.2v-336c0-13.255 10.745-24 24-24 5.43 0 10.439 1.803 14.46 4.844l-0.060-0.044 256 192c5.855 4.425 9.6 11.375 9.6 19.2s-3.745 14.775-9.54 19.156l-0.060 0.044zM472 112v288l192-144zM944.96 560.96c4.706-4.393 7.639-10.634 7.639-17.559 0-13.255-10.745-24-24-24-6.925 0-13.165 2.933-17.546 7.625l-0.013 0.014-79.040 79-79.040-79c-4.274-3.991-10.032-6.441-16.361-6.441-13.255 0-24 10.745-24 24 0 6.33 2.45 12.087 6.454 16.375l-0.013-0.014 79 79.040-79 79.040c-3.991 4.274-6.441 10.032-6.441 16.361 0 13.255 10.745 24 24 24 6.33 0 12.087-2.45 16.375-6.454l-0.014 0.013 79.040-79 79.040 79c4.274 3.991 10.032 6.441 16.361 6.441 13.255 0 24-10.745 24-24 0-6.33-2.45-12.087-6.454-16.375l0.013 0.014-79-79.040z" />
<glyph unicode="&#xe0e2;" glyph-name="book-light" data-tags="book-light" d="M832 856h-544c-66.274 0-120-53.726-120-120v0-672c0-13.255 10.745-24 24-24v0h576c13.255 0 24 10.745 24 24s-10.745 24-24 24v0h-552v8c0 39.765 32.235 72 72 72v0h544c13.255 0 24 10.745 24 24v0 640c0 13.255-10.745 24-24 24v0zM808 216h-520c-0.052 0-0.112 0-0.173 0-27.094 0-52.081-9.018-72.124-24.216l0.297 0.216v544c0 39.765 32.235 72 72 72v0h520z" />
<glyph unicode="&#xe0e4;" glyph-name="book-bookmark-light" data-tags="book-bookmark-light" d="M832 856h-544c-66.274 0-120-53.726-120-120v0-672c0-13.255 10.745-24 24-24v0h576c13.255 0 24 10.745 24 24s-10.745 24-24 24v0h-552v8c0 39.765 32.235 72 72 72v0h544c13.255 0 24 10.745 24 24v0 640c0 13.255-10.745 24-24 24v0zM472 808h208v-312l-89.64 67.2c-3.961 2.997-8.97 4.8-14.4 4.8s-10.439-1.803-14.46-4.844l0.060 0.044-89.56-67.2zM808 216h-520c-0.052 0-0.112 0-0.173 0-27.094 0-52.081-9.018-72.124-24.216l0.297 0.216v544c0 39.765 32.235 72 72 72v0h136v-360c0-13.255 10.745-24 24-24 5.43 0 10.439 1.803 14.46 4.844l-0.060-0.044 113.6 85.2 113.64-85.2c3.953-2.978 8.948-4.77 14.36-4.77 13.244 0 23.983 10.728 24 23.968v360.002h80z" />
<glyph unicode="&#xe0e6;" glyph-name="book-open-light" data-tags="book-open-light" d="M928 760h-288c-53.536-0.041-100.59-27.752-127.639-69.604l-0.361-0.596c-27.41 42.448-74.464 70.159-127.994 70.2h-288.006c-13.255 0-24-10.745-24-24v0-576c0-13.255 10.745-24 24-24v0h288c57.438 0 104-46.562 104-104v0c0-13.255 10.745-24 24-24s24 10.745 24 24v0c0 57.438 46.562 104 104 104v0h288c13.255 0 24 10.745 24 24v0 576c0 13.255-10.745 24-24 24v0zM384 184h-264v528h264c57.438 0 104-46.562 104-104v0-465.24c-27.049 25.54-63.629 41.24-103.875 41.24-0.044 0-0.088 0-0.132 0h0.007zM904 184h-264c-0.020 0-0.043 0-0.067 0-40.272 0-76.873-15.715-104.006-41.348l0.072 0.068v465.28c0 57.438 46.562 104 104 104v0h264z" />
<glyph unicode="&#xe0e8;" glyph-name="bookmark-light" data-tags="bookmark-light" d="M736 824h-448c-30.928 0-56-25.072-56-56v0-704c0-0.002 0-0.005 0-0.008 0-13.255 10.745-24 24-24 4.714 0 9.11 1.359 12.818 3.706l-0.098-0.058 243.24 152 243.32-152c3.61-2.289 8.006-3.648 12.72-3.648 13.255 0 24 10.745 24 24 0 0.003 0 0.006 0 0.008v0 704c0 30.928-25.072 56-56 56v0zM288 776h448c4.418 0 8-3.582 8-8v0-468.72l-219.32 137.080c-3.61 2.289-8.006 3.648-12.72 3.648s-9.11-1.359-12.818-3.706l0.098 0.058-219.24-137.040v468.68c0 4.418 3.582 8 8 8v0zM524.68 244.36c-3.61 2.289-8.006 3.648-12.72 3.648s-9.11-1.359-12.818-3.706l0.098 0.058-219.24-137.040v135.36l232 145 232-145v-135.36z" />
<glyph unicode="&#xe0ea;" glyph-name="bookmark-simple-light" data-tags="bookmark-simple-light" d="M736 824h-448c-30.928 0-56-25.072-56-56v0-704c0-0.002 0-0.005 0-0.008 0-13.255 10.745-24 24-24 4.714 0 9.11 1.359 12.818 3.706l-0.098-0.058 243.24 152 243.32-152c3.61-2.289 8.006-3.648 12.72-3.648 13.255 0 24 10.745 24 24 0 0.003 0 0.006 0 0.008v0 704c0 30.928-25.072 56-56 56v0zM744 107.32l-219.32 137.040c-3.61 2.289-8.006 3.648-12.72 3.648s-9.11-1.359-12.818-3.706l0.098 0.058-219.24-137.040v660.68c0 4.418 3.582 8 8 8v0h448c4.418 0 8-3.582 8-8v0z" />
<glyph unicode="&#xe0ec;" glyph-name="bookmarks-light" data-tags="bookmarks-light" d="M768 856h-384c-30.928 0-56-25.072-56-56v0-72h-72c-30.928 0-56-25.072-56-56v0-608c0.001-13.254 10.746-23.998 24-23.998 5.238 0 10.085 1.678 14.031 4.526l-0.071-0.049 210.040 150.040 210.080-150.040c3.867-2.782 8.699-4.449 13.92-4.449 13.244 0 23.982 10.728 24 23.968v172.802l90.040-64.32c3.875-2.8 8.722-4.478 13.96-4.478 13.254 0 23.999 10.744 24 23.998v0 608c0 30.928-25.072 56-56 56v0zM648 110.64l-186.080 132.88c-3.883 2.817-8.744 4.506-14 4.506s-10.117-1.689-14.070-4.555l0.070 0.048-185.92-132.88v561.36c0 4.418 3.582 8 8 8v0h384c4.418 0 8-3.582 8-8v0zM776 238.64l-80 57.12v376.24c0 30.928-25.072 56-56 56v0h-264v72c0 4.418 3.582 8 8 8v0h384c4.418 0 8-3.582 8-8v0z" />
<glyph unicode="&#xe0ee;" glyph-name="briefcase-light" data-tags="briefcase-light" d="M424 512c0 13.255 10.745 24 24 24v0h128c13.255 0 24-10.745 24-24s-10.745-24-24-24v0h-128c-13.255 0-24 10.745-24 24v0zM920 672v-512c0-30.928-25.072-56-56-56v0h-704c-30.928 0-56 25.072-56 56v0 512c0 30.928 25.072 56 56 56v0h168v40c0 48.601 39.399 88 88 88v0h192c48.601 0 88-39.399 88-88v0-40h168c30.928 0 56-25.072 56-56v0zM376 728h272v40c0 22.091-17.909 40-40 40v0h-192c-22.091 0-40-17.909-40-40v0zM152 672v-171.16c103.777-58.423 227.818-92.84 359.898-92.84 0.036 0 0.071 0 0.107 0h-0.005c0.037 0 0.080 0 0.122 0 132.077 0 256.113 34.433 363.619 94.811l-3.741-1.931v171.12c0 4.418-3.582 8-8 8v0h-704c-4.418 0-8-3.582-8-8v0zM872 160v286.52c-104.686-54.523-228.606-86.509-359.995-86.52h-0.005c-0.025 0-0.054 0-0.083 0-131.361 0-255.254 31.972-364.323 88.56l4.406-2.080v-286.48c0-4.418 3.582-8 8-8v0h704c4.418 0 8 3.582 8 8v0z" />
<glyph unicode="&#xe0f2;" glyph-name="broadcast-light" data-tags="broadcast-light" d="M512 600c-83.947 0-152-68.053-152-152s68.053-152 152-152c83.947 0 152 68.053 152 152v0c0 83.947-68.053 152-152 152v0zM512 344c-57.438 0-104 46.562-104 104s46.562 104 104 104c57.438 0 104-46.562 104-104v0c0-57.438-46.562-104-104-104v0zM824 448c0-0.121 0-0.264 0-0.407 0-79.918-30.148-152.794-79.691-207.876l0.251 0.284c-4.39-4.676-10.611-7.588-17.511-7.588-13.255 0-24 10.745-24 24 0 5.965 2.176 11.422 5.778 15.62l-0.027-0.032c41.774 46.466 67.322 108.25 67.322 176s-25.548 129.534-67.536 176.242l0.214-0.242c-4.019 4.281-6.489 10.058-6.489 16.412 0 13.255 10.745 24 24 24 7.29 0 13.82-3.25 18.222-8.38l0.027-0.032c49.292-54.799 79.44-127.675 79.44-207.593 0-0.143 0-0.286 0-0.429v0.022zM268.72 550.76c-13.178-30.324-20.843-65.646-20.843-102.758 0-67.751 25.549-129.535 67.537-176.244l-0.214 0.242c3.792-4.226 6.111-9.842 6.111-16 0-7.093-3.077-13.467-7.969-17.861l-0.022-0.020c-4.226-3.792-9.842-6.111-16-6.111-7.093 0-13.467 3.077-17.861 7.969l-0.020 0.022c-49.359 54.919-79.545 127.934-79.545 208s30.186 153.081 79.798 208.286l-0.253-0.286c4.429 5.162 10.959 8.412 18.249 8.412 13.255 0 24-10.745 24-24 0-6.354-2.469-12.131-6.501-16.425l0.012 0.013c-18.756-20.888-34.38-45.090-45.819-71.525l-0.661-1.715zM984 448c0-0.142 0-0.311 0-0.48 0-128.488-51.466-244.954-134.909-329.91l0.069 0.070c-4.363-4.454-10.439-7.215-17.16-7.215-13.263 0-24.015 10.752-24.015 24.015 0 6.542 2.616 12.473 6.859 16.804l-0.004-0.004c75.012 76.358 121.317 181.131 121.317 296.72s-46.305 220.362-121.378 296.782l0.061-0.062c-4.239 4.327-6.855 10.258-6.855 16.8 0 13.263 10.752 24.015 24.015 24.015 6.721 0 12.797-2.761 17.156-7.211l0.004-0.004c83.374-84.886 134.84-201.353 134.84-329.84 0-0.169 0-0.337 0-0.506v0.026zM209.16 151.28c4.239-4.327 6.855-10.258 6.855-16.8 0-13.263-10.752-24.015-24.015-24.015-6.721 0-12.797 2.761-17.156 7.211l-0.004 0.004c-83.459 85.026-134.974 201.657-134.974 330.32s51.515 245.294 135.045 330.392l-0.071-0.072c4.363 4.454 10.439 7.215 17.16 7.215 13.263 0 24.015-10.752 24.015-24.015 0-6.542-2.616-12.473-6.859-16.804l0.004 0.004c-75.012-76.358-121.317-181.131-121.317-296.72s46.305-220.362 121.378-296.782l-0.061 0.062z" />
<glyph unicode="&#xe0f4;" glyph-name="browser-light" data-tags="browser-light" d="M864 792h-704c-30.928 0-56-25.072-56-56v0-576c0-30.928 25.072-56 56-56v0h704c30.928 0 56 25.072 56 56v0 576c0 30.928-25.072 56-56 56v0zM160 744h704c4.418 0 8-3.582 8-8v0-136h-720v136c0 4.418 3.582 8 8 8v0zM864 152h-704c-4.418 0-8 3.582-8 8v0 392h720v-392c0-4.418-3.582-8-8-8v0z" />
<glyph unicode="&#xe0f6;" glyph-name="browsers-light" data-tags="browsers-light" d="M864 792h-576c-30.928 0-56-25.072-56-56v0-72h-72c-30.928 0-56-25.072-56-56v0-448c0-30.928 25.072-56 56-56v0h576c30.928 0 56 25.072 56 56v0 72h72c30.928 0 56 25.072 56 56v0 448c0 30.928-25.072 56-56 56v0zM160 616h576c4.418 0 8-3.582 8-8v0-72h-592v72c0 4.418 3.582 8 8 8v0zM744 160c0-4.418-3.582-8-8-8v0h-576c-4.418 0-8 3.582-8 8v0 328h592zM872 288c0-4.418-3.582-8-8-8v0h-72v328c0 30.928-25.072 56-56 56v0h-456v72c0 4.418 3.582 8 8 8v0h576c4.418 0 8-3.582 8-8v0z" />
<glyph unicode="&#xe0f8;" glyph-name="cards-light" data-tags="cards-light" d="M736 664h-576c-30.928 0-56-25.072-56-56v0-448c0-30.928 25.072-56 56-56v0h576c30.928 0 56 25.072 56 56v0 448c0 30.928-25.072 56-56 56v0zM744 160c0-4.418-3.582-8-8-8v0h-576c-4.418 0-8 3.582-8 8v0 448c0 4.418 3.582 8 8 8v0h576c4.418 0 8-3.582 8-8v0zM920 736v-480c0-13.255-10.745-24-24-24s-24 10.745-24 24v0 480c0 4.418-3.582 8-8 8v0h-608c-13.255 0-24 10.745-24 24s10.745 24 24 24v0h608c30.928 0 56-25.072 56-56v0z" />
<glyph unicode="&#xe0fe;" glyph-name="building-apartment-light" data-tags="building-apartment-light" d="M960 120h-40v552c0 13.255-10.745 24-24 24v0h-168v104c0 13.255-10.745 24-24 24v0h-384c-13.255 0-24-10.745-24-24v0-232h-168c-13.255 0-24-10.745-24-24v0-424h-40c-13.255 0-24-10.745-24-24s10.745-24 24-24v0h896c13.255 0 24 10.745 24 24s-10.745 24-24 24v0zM152 520h168c13.255 0 24 10.745 24 24v0 232h336v-104c0-13.255 10.745-24 24-24v0h168v-528h-272v168c0 13.255-10.745 24-24 24v0h-128c-13.255 0-24-10.745-24-24v0-168h-272zM552 120h-80v144h80zM456 672c0 13.255 10.745 24 24 24v0h64c13.255 0 24-10.745 24-24s-10.745-24-24-24v0h-64c-13.255 0-24 10.745-24 24v0zM456 544c0 13.255 10.745 24 24 24v0h64c13.255 0 24-10.745 24-24s-10.745-24-24-24v0h-64c-13.255 0-24 10.745-24 24v0zM680 544c0 13.255 10.745 24 24 24v0h64c13.255 0 24-10.745 24-24s-10.745-24-24-24v0h-64c-13.255 0-24 10.745-24 24v0zM344 416c0-13.255-10.745-24-24-24v0h-64c-13.255 0-24 10.745-24 24s10.745 24 24 24v0h64c13.255 0 24-10.745 24-24v0zM344 288c0-13.255-10.745-24-24-24v0h-64c-13.255 0-24 10.745-24 24s10.745 24 24 24v0h64c13.255 0 24-10.745 24-24v0zM456 416c0 13.255 10.745 24 24 24v0h64c13.255 0 24-10.745 24-24s-10.745-24-24-24v0h-64c-13.255 0-24 10.745-24 24v0zM680 416c0 13.255 10.745 24 24 24v0h64c13.255 0 24-10.745 24-24s-10.745-24-24-24v0h-64c-13.255 0-24 10.745-24 24v0zM680 288c0 13.255 10.745 24 24 24v0h64c13.255 0 24-10.745 24-24s-10.745-24-24-24v0h-64c-13.255 0-24 10.745-24 24v0z" />
<glyph unicode="&#xe0ff;" glyph-name="building-office-light" data-tags="building-office-light" d="M992 120h-72v464h8c13.255 0 24 10.745 24 24s-10.745 24-24 24v0h-200v144h8c13.255 0 24 10.745 24 24s-10.745 24-24 24v0h-576c-13.255 0-24-10.745-24-24s10.745-24 24-24v0h8v-656h-72c-13.255 0-24-10.745-24-24s10.745-24 24-24v0h896c13.255 0 24 10.745 24 24s-10.745 24-24 24v0zM872 584v-464h-144v464zM216 776h464v-656h-112v200c0 13.255-10.745 24-24 24v0h-192c-13.255 0-24-10.745-24-24v0-200h-112zM520 120h-144v176h144zM296 640c0 13.255 10.745 24 24 24v0h64c13.255 0 24-10.745 24-24s-10.745-24-24-24v0h-64c-13.255 0-24 10.745-24 24v0zM488 640c0 13.255 10.745 24 24 24v0h64c13.255 0 24-10.745 24-24s-10.745-24-24-24v0h-64c-13.255 0-24 10.745-24 24v0zM320 456c-13.255 0-24 10.745-24 24s10.745 24 24 24v0h64c13.255 0 24-10.745 24-24s-10.745-24-24-24v0zM488 480c0 13.255 10.745 24 24 24v0h64c13.255 0 24-10.745 24-24s-10.745-24-24-24v0h-64c-13.255 0-24 10.745-24 24v0z" />
</font>
</defs>
</svg>
